Ивановский Торрент трекер
Яндекс.Погода
 

[Цитировать]
HUNTER

Жена мясника / The Butcher's Wife
-Страна: США
Жанр: Фэнтези, комедия
Год выпуска: 1991
Продолжительность: 01:44:45-Перевод: Профессиональный (многоголосый, закадровый)
Перевод: Профессиональный (многоголосый, закадровый) Paramount Channel
Перевод: Авторский (одноголосый, закадровый) Вартан Дохалов
Cубтитры: английские
Оригинальная аудиодорожка: английский-Режиссер: Терри Хьюз / Terry Hughes-В ролях: Деми Мур, Джефф Дэниелс, Джордж Дзундза, Мэри Стинберген, Фрэнсис МакДорманд, Маргарет Колин, Макс Перлих, Мириам Маргулис, Хелен Хэнфт, Кристофер Дуранг-Описание:
Мяснику из Нью-Йорка по имени Лео Лемке несказанно повезло. Он вернулся с рыбалки из Южной Каролины с потрясающим «уловом», который ему не терпелось продемонстрировать всем друзьям и знакомым — с шикарной молодой женой. Белокурую супругу мясника звали Мариной, и была она девушкой не простой, а ясновидящей.
Не было человека, которого встреча с красавицей оставила бы равнодушным: было в ней что-то волшебное, колдовское… Прошло время, и стал наш мясник нервничать и в жене своей сомневаться: уж не ведьма ли она? В дело вступает медицина. Местный психиатр, доктор Алекс Тремор, не верит в сверхъестественные способности Марины, но, сам того не замечая, медленно и верно начинает попадать под власть ее чар.-Сэмпл: Скачать-Тип релиза: WEB-DL 720p
Контейнер: MKV-Видео: 1280x720 (16:9); 3 920 Kbps; 23.976 fps; 0.178 bpp
Аудио 1: Russian; AC3; 48.0 KHz; 6ch; 448 Kbps MVO
Аудио 2: Russian; AC3; 48.0 KHz; 2ch; 192 Kbps MVO Paramount Channel
Аудио 3: Russian; AC3; 48.0 KHz; 2ch; 192 Kbps AVO Вартан Дохалов
Аудио 4: English; AC3; 48.0 KHz; 6ch; 384 Kbps

MediaInfo

Complete name : E:\The Butcher's Wife 1991 720p WEB-DL DD5.1 H.264-alfaHD (1).mkv
Format : Matroska
Format version : Version 4 / Version 2
File size : 3.84 GiB
Duration : 1h 44mn
Overall bit rate : 5 241 Kbps
Encoded date : UTC 2016-02-12 11:41:57
Writing application : mkvmerge v8.3.0 ('Over the Horizon') 64bit
Writing library : libebml v1.3.1 + libmatroska v1.4.2
Attachements : poster.jpg
DURATION : 01:44:50.592000000
NUMBER_OF_FRAMES : 196581
NUMBER_OF_BYTES : 352273152
_STATISTICS_WRITING_APP : mkvmerge v8.3.0 ('Over the Horizon') 64bit
_STATISTICS_WRITING_DATE_UT : 2016-02-12 11:41:57
_STATISTICS_TAGS : BPS DURATION NUMBER_OF_FRAMES NUMBER_OF_BYTES
Video
ID : 1
Format : AVC
Format/Info : Advanced Video Codec
Format profile : High@L3.1
Format settings, CABAC : No
Format settings, ReFrames : 2 frames
Codec ID : V_MPEG4/ISO/AVC
Duration : 1h 44mn
Bit rate : 3 920 Kbps
Width : 1 278 pixels
Height : 720 pixels
Display aspect ratio : 16:9
Frame rate mode : Constant
Frame rate : 23.976 fps
Color space : YUV
Chroma subsampling : 4:2:0
Bit depth : 8 bits
Scan type : Progressive
Bits/(Pixel*Frame) : 0.178
Stream size : 2.87 GiB (75%)
Language : English
Default : Yes
Forced : No
Color range : Limited
Color primaries : BT.709
Transfer characteristics : BT.709
Matrix coefficients : BT.709
Audio #1
ID : 2
Format : AC-3
Format/Info : Audio Coding 3
Mode extension : CM (complete main)
Format settings, Endianness : Big
Codec ID : A_AC3
Duration : 1h 44mn
Bit rate mode : Constant
Bit rate : 448 Kbps
Channel(s) : 6 channels
Channel positions : Front: L C R, Side: L R, LFE
Sampling rate : 48.0 KHz
Compression mode : Lossy
Stream size : 336 MiB (9%)
Language : Russian
Default : Yes
Forced : No
Audio #2
ID : 3
Format : AC-3
Format/Info : Audio Coding 3
Mode extension : CM (complete main)
Format settings, Endianness : Big
Codec ID : A_AC3
Duration : 1h 44mn
Bit rate mode : Constant
Bit rate : 192 Kbps
Channel(s) : 2 channels
Channel positions : Front: L R
Sampling rate : 48.0 KHz
Compression mode : Lossy
Stream size : 144 MiB (4%)
Title : MVO Paramount Channel
Language : Russian
Default : No
Forced : No
Audio #3
ID : 4
Format : AC-3
Format/Info : Audio Coding 3
Mode extension : CM (complete main)
Format settings, Endianness : Big
Codec ID : A_AC3
Duration : 1h 44mn
Bit rate mode : Constant
Bit rate : 192 Kbps
Channel(s) : 2 channels
Channel positions : Front: L R
Sampling rate : 48.0 KHz
Compression mode : Lossy
Stream size : 144 MiB (4%)
Title : AVO Вартан Дохалов
Language : Russian
Default : No
Forced : No
Audio #4
ID : 5
Format : AC-3
Format/Info : Audio Coding 3
Mode extension : CM (complete main)
Format settings, Endianness : Big
Codec ID : A_AC3
Duration : 1h 44mn
Bit rate mode : Constant
Bit rate : 384 Kbps
Channel(s) : 6 channels
Channel positions : Front: L C R, Side: L R, LFE
Sampling rate : 48.0 KHz
Compression mode : Lossy
Stream size : 288 MiB (7%)
Language : English
Default : No
Forced : No
Text
ID : 6
Format : UTF-8
Codec ID : S_TEXT/UTF8
Codec ID/Info : UTF-8 Plain Text
Title : CC
Language : English
Default : No
Forced : No
Menu
00:00:00.000 : en:Love Signs
00:04:29.000 : en:Welcome To The Neighborhood
00:11:45.000 : en:A Sleepless Night
00:18:42.000 : en:Professional Advice
00:26:34.000 : en:Looking For Love
00:37:44.000 : en:Not Natural
00:45:50.000 : en:New Lounge Act
00:56:32.000 : en:Split-Apart
01:02:06.000 : en:Freshman Psychology
01:09:26.000 : en:Extramarital Affairs
01:22:12.000 : en:Contagious Chaos
01:33:35.000 : en:destiny

Скриншоты

Показать сообщения:    

Текущее время: 20-Окт 13:30

Часовой пояс: UTC - 1


Вы не можете начинать темы
Вы не можете отвечать на сообщения
Вы не можете редактировать свои сообщения
Вы не можете удалять свои сообщения
Вы не можете голосовать в опросах
Вы не можете прикреплять файлы к сообщениям
Вы не можете скачивать файлы

!ВНИМАНИЕ!
Сайт не предоставляет электронные версии произведений, а занимается лишь коллекционированием и каталогизацией ссылок, присылаемых и публикуемых на форуме нашими читателями. Если вы являетесь правообладателем какого-либо представленного материала и не желаете, чтобы ссылка на него находилась в нашем каталоге, свяжитесь с нами, и мы незамедлительно удалим ее. Файлы для обмена на трекере предоставлены пользователями сайта, и администрация не несет ответственности за их содержание. Просьба не заливать файлы, защищенные авторскими правами, а также файлы нелегального содержания!