Важное объявление!
У Нас Все раздачи мультитрекерные, при нуле пиров в релизах, можете смело вставать на закачку!
Статистика раздачи
Размер:     |    Зарегистрирован:     |    Скачан:     |   
Нет
 
     
 
 
Автор Сообщение

HUNTER

Стаж:
5 лет
Сообщений:
68391

Репутация: 101

[+] [-]
Вне форума [Профиль] [ЛС]

Жена мясника / The Butcher's Wife
Страна: США
Жанр: Фэнтези, комедия
Год выпуска: 1991
Продолжительность: 1:40:00
Перевод: Профессиональный (многоголосый закадровый)
Cубтитры: нет
Оригинальная аудиодорожка: Английский
Режиссер: Терри Хьюз / Terry Hughes
В ролях: Деми Мур, Джефф Дэниелс, Джордж Дзундза, Мэри Стинберген, Фрэнсис МакДорманд, Маргарет Колин, Макс Перлих, Мириам Маргулис, Хелен Хэнфт, Кристофер Дуранг
Описание: Мяснику из Нью-Йорка по имени Лео Лемке несказанно повезло. Он вернулся с рыбалки из Южной Каролины с потрясающим «уловом», который ему не терпелось продемонстрировать всем друзьям и знакомым — с шикарной молодой женой. Белокурую супругу мясника звали Мариной, и была она девушкой не простой, а ясновидящей.
Не было человека, которого встреча с красавицей оставила бы равнодушным: было в ней что-то волшебное, колдовское… Прошло время, и стал наш мясник нервничать и в жене своей сомневаться: уж не ведьма ли она? В дело вступает медицина. Местный психиатр, доктор Алекс Тремор, не верит в сверхъестественные способности Марины, но, сам того не замечая, медленно и верно начинает попадать под власть ее чар.
Доп. информация: Запись с канала Paramount Channel HD RUS
Сэмпл: http://multi-up.com/958895
Качество видео: HDTV 1080i
Формат видео: TS
Видео: 4680 Кбит/сек, 1920x1080 (16:9)
Аудио: MPEG Audio 48000Hz stereo Layer 2 192kbps ENG
Аудио: MPEG Audio 48000Hz stereo Layer 2 192kbps RUS

MediaInfo

Общее
Идентификатор : 1 (0x1)
Полное имя : D:\Жена мясника (The Butcher's Wife) [1991] (ENG-RUS) [Paramount Channel HD].ts
Формат : MPEG-TS
Размер файла : 3,72 Гбайт
Продолжительность : 1 ч. 40 м.
Режим общего битрейта : Переменный
Общий поток : 5331 Кбит/сек
Видео
Идентификатор : 2079 (0x81F)
Идентификатор меню : 1 (0x1)
Формат : AVC
Формат/Информация : Advanced Video Codec
Профиль формата : High@L4.0
Параметр CABAC формата : Да
Параметр ReFrames формата : 4 кадра
Идентификатор кодека : 27
Продолжительность : 1 ч. 40 м.
Вид битрейта : Переменный
Битрейт : 4680 Кбит/сек
Максимальный битрейт : 5000 Кбит/сек
Ширина : 1920 пикселей
Высота : 1080 пикселей
Соотношение сторон : 16:9
Режим частоты кадров : Переменный
Цветовое пространство : YUV
Субдискретизация насыщенности : 4:2:0
Битовая глубина : 8 бит
Тип развёртки : MBAFF
Размер потока : 3,27 Гбайт (88%)
Аудио #1
Идентификатор : 2077 (0x81D)
Идентификатор меню : 1 (0x1)
Формат : MPEG Audio
Версия формата : Version 1
Профиль формата : Layer 2
Идентификатор кодека : 3
Продолжительность : 1 ч. 40 м.
Вид битрейта : Постоянный
Битрейт : 192 Кбит/сек
Каналы : 2 канала
Частота : 48,0 КГц
Метод сжатия : С потерями
Размер потока : 137 Мбайт (4%)
Язык : English
Аудио #2
Идентификатор : 2078 (0x81E)
Идентификатор меню : 1 (0x1)
Формат : MPEG Audio
Версия формата : Version 1
Профиль формата : Layer 2
Идентификатор кодека : 3
Продолжительность : 1 ч. 40 м.
Вид битрейта : Постоянный
Битрейт : 192 Кбит/сек
Каналы : 2 канала
Частота : 48,0 КГц
Метод сжатия : С потерями
Размер потока : 137 Мбайт (4%)
Язык : Russian

Скриншоты


_________________
Показать сообщения:    

Текущее время: Сегодня 19:41

Часовой пояс: GMT



Вы не можете начинать темы
Вы не можете отвечать на сообщения
Вы не можете редактировать свои сообщения
Вы не можете удалять свои сообщения
Вы не можете голосовать в опросах
Вы не можете прикреплять файлы к сообщениям
Вы не можете скачивать файлы