Жена епископа / The Bishop\'s Wife (Генри Костер / Henry Koster) [1947 г., США, фэнтези, мелодрама, BDRemux 1080p] MVO (5-й канал) + AVO (Кузнецов) + Original Eng + Sub (Rus, Eng, Fre) :: Ивановский Торрент трекер
Важное объявление!
У Нас Все раздачи мультитрекерные, при нуле пиров в релизах, можете смело вставать на закачку!
Статистика раздачи
Размер:     |    Зарегистрирован:     |    Скачан:     |   
Нет
 
     
 
 
Автор Сообщение

HUNTER

Стаж:
4 года 11 месяцев
Сообщений:
66077

Репутация: 101

[+] [-]
Вне форума [Профиль] [ЛС]

Жена епископа / The Bishop's Wife-
Год выпуска: 1947
Страна: США
Жанр: фэнтези, мелодрама
Продолжительность: 01:49:14
Перевод: Профессиональный (многоголосый закадровый) ТРК «Петербург – 5-й канал»
Перевод 2: Авторский (одноголосый закадровый) Сергей Кузнецов
Оригинальная аудиодорожка: Английская
Cубтитры: Русские (полные, форсированные), английские (полные, для слабослышащих), французские-Режиссер: Генри Костер / Henry Koster
В ролях: Кэри Грант, Лоретта Янг, Дэвид Нивен, Монти Вулли, Джеймс Глисон, Клод Купер, Эльза Ланчестер, Сара Хейден, Керолин Граймс-Описание:
Канун рождества, магазины полны подарков, идет пушистый снег, горожане любуются огнями новогодних елок и блеском мишуры. Только Генри Брогхэм — епископ, мечтающий о новом кафедральном соборе и отдающий все свое время сбору пожертвований у богатых горожан на его строительство, не замечает предпраздничной суеты. Увлеченный своей мечтой, он практически не уделяет внимания своей красавице жене Джулии и дочери. Он молится постоянно о послании ему удачи для осуществления проекта. Однажды вечером перед епископом появляется незнакомец по имени Дадли, который уверяет, что он Ангел, спустившийся с небес ему на помощь. Пришелец быстро становится лучшим другом Джулии и ее дочери Дебби, также этот симпатичный господин рассказывает горожанам поучительные истории на тему жизни и веры, и вскоре становится своим человеком в городке. Епископ не может поверить в существование Ангела, но происходящие маленькие чудеса вынуждают Генри задуматься над суетностью своей жизни и пересмотреть отношения с близкими, друзьями, дочерью и любимой женой…-За русские дорожки спасибо palmeiras и JayBee.
| IMDb | Сэмпл-Качество: BDRemux 1080p (The Bishop's Wife 1947 1080p Blu-ray AVC DTS-HD MA 1.0-SbR)
Контейнер: MKV
Видео: AVC, 1920x1080 (1.37:1), 23.976 fps, 24958 kbps
Аудио 1: Русский AC3 2.0, 48 kHz, 192 kbps — Петербург – 5-й канал
Аудио 2: Русский AC3 2.0, 48 kHz, 192 kbps — Кузнецов
Аудио 3: Английский DTS-HD MA 1.0, 48 kHz, 1067 kbps, 24-bit (DTS Core: 1.0, 48 kHz, 768 kbps, 24-bit)
Формат субтитров: softsub (SRT)

Скриншоты


MI

General
Unique ID : 232934120768921279347327474327193432413 (0xAF3D7AD5DDB93AC9843940BE1F58B15D)
Complete name : The.Bishop's.Wife.1947.1080p.BDRemux.mkv
Format : Matroska
Format version : Version 2
File size : 20.2 GiB
Duration : 1h 49mn
Overall bit rate mode : Variable
Overall bit rate : 26.4 Mbps
Movie name : The Bishop's Wife / Жена епископа (1947) – RuTracker
Encoded date : UTC 2015-10-13 19:39:52
Writing application : mkvmerge v7.5.0 ('Glass Culture') 64bit built on Jan 4 2015 16:48:44
Writing library : libebml v1.3.1 + libmatroska v1.4.2
Attachements : cover.jpg
Video
ID : 1
Format : AVC
Format/Info : Advanced Video Codec
Format profile : High@L4.1
Format settings, CABAC : Yes
Format settings, ReFrames : 2 frames
Format settings, GOP : M=1, N=10
Codec ID : V_MPEG4/ISO/AVC
Duration : 1h 49mn
Bit rate mode : Variable
Width : 1 920 pixels
Height : 1 080 pixels
Display aspect ratio : 16:9
Frame rate mode : Constant
Frame rate : 23.976 fps
Color space : YUV
Chroma subsampling : 4:2:0
Bit depth : 8 bits
Scan type : Progressive
Title : The Bishop's Wife 1947 1080p Blu-ray AVC DTS-HD MA 1.0-SbR
Language : English
Default : Yes
Forced : No
Audio #1
ID : 2
Format : AC-3
Format/Info : Audio Coding 3
Mode extension : CM (complete main)
Format settings, Endianness : Big
Codec ID : A_AC3
Duration : 1h 49mn
Bit rate mode : Constant
Bit rate : 192 Kbps
Channel(s) : 2 channels
Channel positions : Front: L R
Sampling rate : 48.0 KHz
Bit depth : 16 bits
Compression mode : Lossy
Stream size : 150 MiB (1%)
Title : MVO – Петербург – 5-й канал
Language : Russian
Default : Yes
Forced : No
Audio #2
ID : 3
Format : AC-3
Format/Info : Audio Coding 3
Mode extension : CM (complete main)
Format settings, Endianness : Big
Codec ID : A_AC3
Duration : 1h 49mn
Bit rate mode : Constant
Bit rate : 192 Kbps
Channel(s) : 2 channels
Channel positions : Front: L R
Sampling rate : 48.0 KHz
Bit depth : 16 bits
Compression mode : Lossy
Stream size : 150 MiB (1%)
Title : AVO – С.Кузнецов
Language : Russian
Default : No
Forced : No
Audio #3
ID : 4
Format : DTS
Format/Info : Digital Theater Systems
Format profile : MA / Core
Mode : 16
Format settings, Endianness : Big
Codec ID : A_DTS
Duration : 1h 49mn
Bit rate mode : Variable
Bit rate : Unknown / 768 Kbps
Channel(s) : 1 channel
Channel positions : Front: C
Sampling rate : 48.0 KHz
Bit depth : 24 bits
Compression mode : Lossless / Lossy
Title : Original
Language : English
Default : No
Forced : No
Text #1
ID : 5
Format : UTF-8
Codec ID : S_TEXT/UTF8
Codec ID/Info : UTF-8 Plain Text
Title : forced
Language : Russian
Default : Yes
Forced : Yes
Text #2
ID : 6
Format : UTF-8
Codec ID : S_TEXT/UTF8
Codec ID/Info : UTF-8 Plain Text
Language : Russian
Default : No
Forced : No
Text #3
ID : 7
Format : UTF-8
Codec ID : S_TEXT/UTF8
Codec ID/Info : UTF-8 Plain Text
Language : English
Default : No
Forced : No
Text #4
ID : 8
Format : UTF-8
Codec ID : S_TEXT/UTF8
Codec ID/Info : UTF-8 Plain Text
Title : SDH
Language : English
Default : No
Forced : No
Text #5
ID : 9
Format : UTF-8
Codec ID : S_TEXT/UTF8
Codec ID/Info : UTF-8 Plain Text
Language : French
Default : No
Forced : No
Menu
00:00:00.000 : en:01. Logo/Main Title
00:01:25.085 : en:02. Who's That Man?
00:10:05.063 : en:03. Cathedral Committee
00:16:22.899 : en:04. An Angel Sent to Help
00:23:15.227 : en:05. The New Assistant
00:30:55.479 : en:06. Back at Michel's
00:40:37.352 : en:07. The Professor's Coin
00:46:19.068 : en:08. Doubting Henry
00:50:52.841 : en:09. Family Business
01:00:30.043 : en:10. The Boys Choir
01:06:32.739 : en:11. The Joys of Living
01:22:48.630 : en:12. A Dudley Christmas
01:26:40.153 : en:13. Changing Her Tune
01:35:04.741 : en:14. Truth About Dudley
01:39:25.710 : en:15. The Work is Done
01:45:35.037 : en:16. Empty Stocking/Credits

_________________
Показать сообщения:    

Текущее время: Сегодня 08:57

Часовой пояс: GMT



Вы не можете начинать темы
Вы не можете отвечать на сообщения
Вы не можете редактировать свои сообщения
Вы не можете удалять свои сообщения
Вы не можете голосовать в опросах
Вы не можете прикреплять файлы к сообщениям
Вы не можете скачивать файлы