Важное объявление!
У Нас Все раздачи мультитрекерные, при нуле пиров в релизах, можете смело вставать на закачку!
 
Автор Сообщение

HUNTER

Стаж:
4 года 7 месяцев
Сообщений:
61439

Репутация: 101

[+] [-]
Вне форума [Профиль] [ЛС]

Железный человек 3
Iron Man 3
-
Год выпуска: 2013
Страна: США, Китай
Жанр: фантастика, боевик, приключения
Продолжительность: 02:10:32
Перевод: Профессиональный (дублированный)
Русские субтитры: есть-Режиссер: Шейн Блэк / Shane Black
В ролях: Роберт Дауни мл., Гвинет Пэлтроу, Дон Чидл, Гай Пирс, Бен Кингсли, Джеймс Бэдж Дэйл, Ребекка Холл, Тай Симпкинс, Уильям Сэдлер, Джон Фавро.
Описание: Продолжение приключенческой эпопеи про жизнь невероятного Тони Старка (Железного человека). Какие напасти обрушились на голову Тони Старка на этот раз. После самоотверженной командной работы в рядах Мстителей, позволившей спасти Землю от инопланетных захватчиков, а Нью-Йорк от полного уничтожения, Тони Старк осознал свою уязвимость, почувствовал себя букашкой в консервной банке и начал страдать от приступов паники. Бороться с психологическими проблемами Старк решил с помощью изнуряющей работы над усовершенствованием костюма Железного человека. Уйдя с головой в работу, Тони пропустил появление нового террориста номер один по имени Мандарин, который обещает подорвать мирную жизнь американцев. Когда в одном из терактов серьезное ранение получает телохранитель и друг Старка, миллиардер вызывает террориста на бой. Преступник не заставляет себя ждать и уничтожает дом Старка в Малибу. Теперь герой лишается своего костюма и вынужден бороться со злодеем буквально голыми руками.
-
  • Формат 3D Half OverUnder | Вертикальная анаморфная стереопара-Качество: BDRip-AVC | Контейнер: MKV | Рип: Killbrain
    Видео: 1920x1080 (16:9), 23.976 fps, x264@L4.1 ~6500 kbps
    Аудио 1: Russian 48 kHz, AC3, 3/2 (L,C,R,l,r) + LFE ch, 640.00 kbps | BD EUR
    Аудио 2: Ukrainian 48 kHz, AC3, 2/0 (L,R) ch, ~192.00 kbps | Dub Itunes
    Аудио 3: English 48 kHz, AC3, 3/2 (L,C,R,l,r) + LFE ch, 640.00 kbps | Original
    Субтитры: русские форсированные и полные, украинские форсированные и полные, английские полные

    Инфо

    Формат : Matroska
    Версия формата : Version 4 / Version 2
    Размер файла : 7,27 Гбайт
    Продолжительность : 2 ч. 10 м.
    Общий поток : 7975 Кбит/сек
    Название фильма : Iron man 3 (2013) 3D by Killbrain
    Дата кодирования : UTC 2013-08-25 19:28:19
    Программа кодирования : mkvmerge v6.3.0 ('You can't stop me!') built on Jun 28 2013 20:09:41
    Библиотека кодирования : libebml v1.3.0 + libmatroska v1.4.0
    Видео
    Идентификатор : 1
    Формат : AVC
    Формат/Информация : Advanced Video Codec
    Профиль формата : High@L4.1
    Параметр CABAC формата : Да
    Параметр ReFrames формата : 4 кадра
    Идентификатор кодека : V_MPEG4/ISO/AVC
    Продолжительность : 2 ч. 10 м.
    Битрейт : 6500 Кбит/сек
    Ширина : 1920 пикселей
    Высота : 1080 пикселей
    Соотношение сторон : 16:9
    Режим частоты кадров : Постоянный
    Частота кадров : 23,976 кадра/сек
    Цветовое пространство : YUV
    Субдискретизация насыщенности : 4:2:0
    Битовая глубина : 8 бит
    Тип развёртки : Прогрессивная
    Бит/(Пиксели*Кадры) : 0.131
    Размер потока : 5,79 Гбайт (80%)
    Заголовок : Iron man 3 (2013) 3D
    Библиотека кодирования : x264 core 130 r2273 b3065e6
    Настройки программы : cabac=1 / ref=4 / deblock=1:-3:-3 / analyse=0x3:0x113 / me=umh / subme=10 / psy=1 / psy_rd=1.00:0.15 / mixed_ref=1 / me_range=32 / chroma_me=1 / trellis=2 / 8x8dct=1 / cqm=0 / deadzone=21,11 / fast_pskip=0 / chroma_qp_offset=-3 / threads=3 / lookahead_threads=1 / sliced_threads=0 / nr=0 / decimate=0 / interlaced=0 / bluray_compat=0 / constrained_intra=0 / bframes=8 / b_pyramid=2 / b_adapt=2 / b_bias=0 / direct=3 / weightb=1 / open_gop=0 / weightp=2 / keyint=240 / keyint_min=24 / scenecut=40 / intra_refresh=0 / rc_lookahead=60 / rc=2pass / mbtree=0 / bitrate=6500 / ratetol=1.0 / qcomp=0.65 / qpmin=0 / qpmax=69 / qpstep=4 / cplxblur=20.0 / qblur=0.5 / vbv_maxrate=40000 / vbv_bufsize=30000 / nal_hrd=none / frame-packing=4 / ip_ratio=1.40 / pb_ratio=1.30 / aq=2:0.80
    Язык : English
    Default : Да
    Forced : Нет
    Аудио #1
    Идентификатор : 2
    Формат : AC-3
    Формат/Информация : Audio Coding 3
    Расширение режима : CM (complete main)
    Параметр Endianness формата : Big
    Идентификатор кодека : A_AC3
    Продолжительность : 2 ч. 10 м.
    Вид битрейта : Постоянный
    Битрейт : 640 Кбит/сек
    Каналы : 6 каналов
    Расположение каналов : Front: L C R, Side: L R, LFE
    Частота : 48,0 КГц
    Битовая глубина : 16 бит
    Метод сжатия : С потерями
    Размер потока : 598 Мбайт (8%)
    Заголовок : AC3 / 5.1 ch / 640 kbps / Русский дубляж, BD EUR
    Язык : Russian
    Default : Да
    Forced : Нет
    Аудио #2
    Идентификатор : 3
    Формат : AC-3
    Формат/Информация : Audio Coding 3
    Расширение режима : CM (complete main)
    Параметр Endianness формата : Big
    Идентификатор кодека : A_AC3
    Продолжительность : 2 ч. 10 м.
    Вид битрейта : Постоянный
    Битрейт : 192 Кбит/сек
    Каналы : 2 канала
    Расположение каналов : Front: L R
    Частота : 48,0 КГц
    Битовая глубина : 16 бит
    Метод сжатия : С потерями
    Размер потока : 179 Мбайт (2%)
    Заголовок : AC3 / 2.0 ch / 192 kbps / Украинский дубляж, iTunes
    Язык : Ukrainian
    Default : Нет
    Forced : Нет
    Аудио #3
    Идентификатор : 4
    Формат : AC-3
    Формат/Информация : Audio Coding 3
    Расширение режима : CM (complete main)
    Параметр Endianness формата : Big
    Идентификатор кодека : A_AC3
    Продолжительность : 2 ч. 10 м.
    Вид битрейта : Постоянный
    Битрейт : 640 Кбит/сек
    Каналы : 6 каналов
    Расположение каналов : Front: L C R, Side: L R, LFE
    Частота : 48,0 КГц
    Битовая глубина : 16 бит
    Метод сжатия : С потерями
    Размер потока : 598 Мбайт (8%)
    Заголовок : AC3 / 5.1 ch / 640 kbps / Английский original, BD EUR
    Язык : English
    Default : Нет
    Forced : Нет
    Текст #1
    Идентификатор : 5
    Формат : UTF-8
    Идентификатор кодека : S_TEXT/UTF8
    Идентификатор кодека/Информация : UTF-8 Plain Text
    Заголовок : Forced, BD EUR
    Язык : Russian
    Default : Да
    Forced : Нет
    Текст #2
    Идентификатор : 6
    Формат : UTF-8
    Идентификатор кодека : S_TEXT/UTF8
    Идентификатор кодека/Информация : UTF-8 Plain Text
    Заголовок : Full, BD EUR
    Язык : Russian
    Default : Нет
    Forced : Нет
    Текст #3
    Идентификатор : 7
    Формат : UTF-8
    Идентификатор кодека : S_TEXT/UTF8
    Идентификатор кодека/Информация : UTF-8 Plain Text
    Заголовок : Forced, BD EUR
    Язык : Ukrainian
    Default : Нет
    Forced : Нет
    Текст #4
    Идентификатор : 8
    Формат : UTF-8
    Идентификатор кодека : S_TEXT/UTF8
    Идентификатор кодека/Информация : UTF-8 Plain Text
    Заголовок : Full, BD EUR
    Язык : Ukrainian
    Default : Нет
    Forced : Нет
    Текст #5
    Идентификатор : 9
    Формат : UTF-8
    Идентификатор кодека : S_TEXT/UTF8
    Идентификатор кодека/Информация : UTF-8 Plain Text
    Заголовок : Full, BD EUR
    Язык : English
    Default : Нет
    Forced : Нет
    Текст #6
    Идентификатор : 10
    Формат : UTF-8
    Идентификатор кодека : S_TEXT/UTF8
    Идентификатор кодека/Информация : UTF-8 Plain Text
    Заголовок : SDH, mod. BD EUR
    Язык : English
    Default : Нет
    Forced : Нет
    Меню
    00:00:00.000 : :Chapter 01
    00:04:52.750 : :Chapter 02
    00:07:55.433 : :Chapter 03
    00:12:12.440 : :Chapter 04
    00:19:04.101 : :Chapter 05
    00:23:47.884 : :Chapter 06
    00:29:47.702 : :Chapter 07
    00:39:46.384 : :Chapter 08
    00:45:56.044 : :Chapter 09
    00:59:19.639 : :Chapter 10
    01:01:56.921 : :Chapter 11
    01:09:24.451 : :Chapter 12
    01:18:41.508 : :Chapter 13
    01:23:52.944 : :Chapter 14
    01:37:55.995 : :Chapter 15
    01:56:18.304 : :Chapter 16
    01:59:38.754 : :Chapter 17

    Скриншоты


  • _________________
    Показать сообщения:    

    Текущее время: Сегодня 23:27

    Часовой пояс: GMT



    Вы не можете начинать темы
    Вы не можете отвечать на сообщения
    Вы не можете редактировать свои сообщения
    Вы не можете удалять свои сообщения
    Вы не можете голосовать в опросах
    Вы не можете прикреплять файлы к сообщениям
    Вы не можете скачивать файлы
    Наши партнеры: интернет магазин Ивановского трикотажа textilla.ru