Важное объявление!
У Нас Все раздачи мультитрекерные, при нуле пиров в релизах, можете смело вставать на закачку!
Статистика раздачи
Размер:     |    Зарегистрирован:     |    Скачан:     |   
Нет
 
     
 
 
Автор Сообщение

HUNTER

Стаж:
5 лет 1 месяц
Сообщений:
68426

Репутация: 101

[+] [-]
Вне форума [Профиль] [ЛС]

Железный человек и Капитан Америка: Союз героев
Iron Man and Captain America: Heroes United
Страна: США
Жанр: мультфильм, фантастика, боевик
Продолжительность: 01:10:56
Год выпуска: 2014-Перевод: Любительский (Многоголосый закадровый) ~ DuBDraG ProJECT, Evolution Studio
Русские субтитры: нет
Режиссёр: Лео Райли / Leo Riley-Роли озвучивали: Адриан Пасдар, Роджер Крэйг Смит, Фред Татаскьор, Дэвид Кэй, Клэнси Браун, Лайам О’Брайэн, Робин Аткин Даунс, Ди Брэдли Бейкер-Описание: Красный Череп намерен захватить весь мир и подчинить себе население планеты, а капитан Америка в свою очередь будет предпринимать меры, чтобы не дать коварным планам осуществиться. Правда, в этот раз действовать Красный Череп намерен не сам, с ним в сговор вступает Таксамастер, у которого имеются к Кэпу собственные претензии, и поэтому он хочет отомстить любой ценой. Поначалу коварные планы врагов человечества начинают осуществляться. Таксамастеру удается заманить капитана в ловушку и одновременно поживиться в лаборатории, где трудится Тони Старк. Но на помощь главному герою приходит Железный человек, и теперь злодеям не поздоровится – новой угрозе будет дан достойный отпор.-Релиз: | | -• Работа с WEB-DL и звуком -Azureus--Качество: WEB-DLRip
Формат: AVI
Видео: 720x400 (1.80:1), 23,976 fps, XviD 66 ~2 360 kbps avg, 0.34 bit/pixel
Аудио: 48 kHz, AC3 Dolby Digital, 2/0 (L,R) ch, ~192 kbps |MVO|
Аудио: 48 kHz, AC3 Dolby Digital, 3/2 (L,C,R,l,r) + LFE ch, ~384 kbps avg |ENG|
Субтитры: English [srt]

MI


General
Complete name : D:\incarcare\rip gata\Iron.Man.and.Captain.America.Heroes.United.2014.WEB-DLRip\Iron.Man.and.Captain.America.Heroes.United.2014.WEB-DLRip.avi
Format : AVI
Format/Info : Audio Video Interleave
File size : 1.46 GiB
Duration : 1h 10mn
Overall bit rate : 2 951 Kbps
Writing application : VirtualDubMod 1.5.10.2 (build 2540/release)
Writing library : VirtualDubMod build 2540/release
Video
ID : 0
Format : MPEG-4 Visual
Format profile : Advanced Simple@L5
Format settings, BVOP : 1
Format settings, QPel : No
Format settings, GMC : No warppoints
Format settings, Matrix : Custom
Codec ID : XVID
Codec ID/Hint : XviD
Duration : 1h 10mn
Bit rate : 2 360 Kbps
Width : 720 pixels
Height : 400 pixels
Display aspect ratio : 16:9
Frame rate : 23.976 fps
Color space : YUV
Chroma subsampling : 4:2:0
Bit depth : 8 bits
Scan type : Progressive
Compression mode : Lossy
Bits/(Pixel*Frame) : 0.342
Stream size : 1.17 GiB (80%)
Writing library : XviD 66
Audio #1
ID : 1
Format : AC-3
Format/Info : Audio Coding 3
Mode extension : CM (complete main)
Format settings, Endianness : Big
Codec ID : 2000
Duration : 1h 10mn
Bit rate mode : Constant
Bit rate : 192 Kbps
Channel(s) : 2 channels
Channel positions : Front: L R
Sampling rate : 48.0 KHz
Compression mode : Lossy
Stream size : 97.4 MiB (7%)
Alignment : Split accross interleaves
Interleave, duration : 42 ms (1.00 video frame)
Interleave, preload duratio : 500 ms
Audio #2
ID : 2
Format : AC-3
Format/Info : Audio Coding 3
Mode extension : CM (complete main)
Format settings, Endianness : Big
Codec ID : 2000
Duration : 1h 10mn
Bit rate mode : Constant
Bit rate : 384 Kbps
Channel(s) : 6 channels
Channel positions : Front: L C R, Side: L R, LFE
Sampling rate : 48.0 KHz
Compression mode : Lossy
Stream size : 195 MiB (13%)
Alignment : Split accross interleaves
Interleave, duration : 42 ms (1.00 video frame)
Interleave, preload duratio : 500 ms

Скриншоты


_________________
Показать сообщения:    

Текущее время: Сегодня 02:00

Часовой пояс: GMT



Вы не можете начинать темы
Вы не можете отвечать на сообщения
Вы не можете редактировать свои сообщения
Вы не можете удалять свои сообщения
Вы не можете голосовать в опросах
Вы не можете прикреплять файлы к сообщениям
Вы не можете скачивать файлы