Железный человек и Капитан Америка: Союз героев / Iron Man and Captain America: Heroes United (Лео Райли / Leo Riley) [2014, мультфильм, фантастика, боевик, WEB-DL 1080p] MVO + Original Eng + eng sub :: Ивановский Торрент трекер
Важное объявление!
У Нас Все раздачи мультитрекерные, при нуле пиров в релизах, можете смело вставать на закачку!
Статистика раздачи
Размер:     |    Зарегистрирован:     |    Скачан:     |   
Нет
 
     
 
 
Автор Сообщение

HUNTER

Стаж:
4 года 11 месяцев
Сообщений:
66116

Репутация: 101

[+] [-]
Вне форума [Профиль] [ЛС]

Железный человек и Капитан Америка: Союз героев
Iron Man and Captain America: Heroes United
«Iron Man and Captain America team up in groundbreaking Marvel CG Animation»
Год выпуска: 2014
Страна: США
Жанр: мультфильм, комедия, приключения, семейный
Продолжительность: 01:10:56
Перевод: Любительский (Многоголосый закадровый) - DuBDraG ProJECT, Evolution Studio
русские субтитры: нет-Режиссёр: Лео Райли : Leo Riley-Роли озвучивали: Адриан Пасдар, Роджер Крэйг Смит, Фред Татаскьор, Дэвид Кэй, Клэнси Браун, Лайам О’Брайэн, Робин Аткин Даунс, Ди Брэдли Бейкер-Описание: Красный Череп намерен захватить весь мир и подчинить себе население планеты, а капитан Америка в свою очередь будет предпринимать меры, чтобы не дать коварным планам осуществиться. Правда, в этот раз действовать Красный Череп намерен не сам, с ним в сговор вступает Таксамастер, у которого имеются к Кэпу собственные претензии, и поэтому он хочет отомстить любой ценой. Поначалу коварные планы врагов человечества начинают осуществляться. Таксамастеру удается заманить капитана в ловушку и одновременно поживиться в лаборатории, где трудится Тони Старк. Но на помощь главному герою приходит Железный человек, и теперь злодеям не поздоровится – новой угрозе будет дан достойный отпор.- релиз: -- Работа с WEB-DL и звуком -Azureus--Качество: WEB-DL 1080p
Формат: MKV
Видео кодек: AVC
Аудио кодек: AC3
Видео: 1916x1076 , 23,976 fps, ~4973 kbps avg, 0.101 bit/pixel
Аудио #1: [RUS] 48 kHz, AC3 Dolby Digital, 2/0 (L,R) ch, ~192 kbps
Аудио #2: [ENG] 48 kHz, AC3 Dolby Digital, 3/2 (L,C,R,l,r) + LFE ch, ~384 kbps avg
субтитры: английские
навигация по главам: 8 глав (не именные)

MediaInfo

Общее
Уникальный идентификатор : 254809314299459543044676608357560748878 (0xBFB27D25646BE611B296544A82080B4E)
Полное имя : D:\Im\Железный человек и Капитан Америка\Iron Man and Captain America Heroes United.2014.WEB-DL 1080p.mkv
Формат : Matroska
Версия формата : Version 4 / Version 2
Размер файла : 2,81 Гбайт
Продолжительность : 1 ч. 10 м.
Общий поток : 5661 Кбит/сек
Название фильма : Iron Man and Captain America: Heroes United.2014.WEB-DL 1080p -Azureus-
Дата кодирования : UTC 2015-06-17 14:07:58
Программа кодирования : mkvmerge v7.9.0 ('Birds') 32bit
Библиотека кодирования : libebml v1.3.1 + libmatroska v1.4.2
DURATION : 01:10:56.864000000
NUMBER_OF_FRAMES : 133027
NUMBER_OF_BYTES : 102164736
_STATISTICS_WRITING_APP : mkvmerge v7.9.0 ('Birds') 32bit
_STATISTICS_WRITING_DATE_UTC : 2015-06-17 14:07:58
_STATISTICS_TAGS : BPS DURATION NUMBER_OF_FRAMES NUMBER_OF_BYTES
Видео
Идентификатор : 1
Формат : AVC
Формат/Информация : Advanced Video Codec
Профиль формата : High@L4.0
Параметр CABAC формата : Да
Параметр ReFrames формата : 4 кадра
Идентификатор кодека : V_MPEG4/ISO/AVC
Продолжительность : 1 ч. 10 м.
Битрейт : 4973 Кбит/сек
Ширина : 1916 пикселей
Высота : 1076 пикселей
Соотношение сторон : 16:9
Частота кадров : 23,976 кадра/сек
Цветовое пространство : YUV
Субдискретизация насыщенности : 4:2:0
Битовая глубина : 8 бит
Тип развёртки : Прогрессивная
Бит/(Пиксели*Кадры) : 0.101
Размер потока : 2,46 Гбайт (88%)
Язык : English
Default : Да
Forced : Нет
Основные цвета : BT.709-5, BT.1361, IEC 61966-2-4, SMPTE RP177
Характеристики трансфера : BT.709-5, BT.1361
Коэффициенты матрицы : BT.709-5, BT.1361, IEC 61966-2-4 709, SMPTE RP177
Аудио #1
Идентификатор : 2
Формат : AC-3
Формат/Информация : Audio Coding 3
Расширение режима : CM (complete main)
Идентификатор кодека : A_AC3
Продолжительность : 1 ч. 10 м.
Вид битрейта : Постоянный
Битрейт : 192 Кбит/сек
Каналы : 2 канала
Расположение каналов : Front: L R
Частота : 48,0 КГц
Битовая глубина : 16 бит
Метод сжатия : С потерями
Размер потока : 97,4 Мбайт (3%)
Заголовок : MVO - DuBDraG ProJECT, Evolution Studio
Язык : Russian
Default : Да
Forced : Нет
Аудио #2
Идентификатор : 3
Формат : AC-3
Формат/Информация : Audio Coding 3
Расширение режима : CM (complete main)
Идентификатор кодека : A_AC3
Продолжительность : 1 ч. 10 м.
Вид битрейта : Постоянный
Битрейт : 384 Кбит/сек
Каналы : 6 каналов
Расположение каналов : Front: L C R, Side: L R, LFE
Частота : 48,0 КГц
Битовая глубина : 16 бит
Метод сжатия : С потерями
Размер потока : 195 Мбайт (7%)
Заголовок : ENG
Язык : English
Default : Нет
Forced : Нет
Текст
Идентификатор : 4
Формат : UTF-8
Идентификатор кодека : S_TEXT/UTF8
Идентификатор кодека/Информация : UTF-8 Plain Text
Заголовок : Eng Sub
Язык : English
Default : Нет
Forced : Нет
Меню
00:00:00.000 : en:1
00:08:56.000 : en:2
00:18:28.000 : en:3
00:28:12.000 : en:4
00:38:13.000 : en:5
00:49:02.000 : en:6
01:00:07.000 : en:7
01:07:17.000 : en:8
____________________________________________
Стою на раздаче до 5 дней.
Просьба скачавшим как можно дольше не покидать раздачу!
ВСЕМ ПРИЯТНОГО ПРОСМОТРА!_________________________________________

_________________
Показать сообщения:    

Текущее время: Сегодня 16:15

Часовой пояс: GMT



Вы не можете начинать темы
Вы не можете отвечать на сообщения
Вы не можете редактировать свои сообщения
Вы не можете удалять свои сообщения
Вы не можете голосовать в опросах
Вы не можете прикреплять файлы к сообщениям
Вы не можете скачивать файлы