Ивановский Торрент трекер
Яндекс.Погода
 

[Цитировать]
HUNTER

Железный смерч / Metal Tornado-
Год выпуска: 2011
Страна: Канада / Capital Productions
Жанр: фантастика
Продолжительность: 01:30:04
Перевод: Профессиональное (многоголосое) [лицензия]
Язык субтитров: Russian-Режиссер: Гордон Янг
В ролях: Лу Дайэмонд Филлипс, Николь де Бур, Грег Эвиган, Софи Гендрон, Джон МакЛарен, Алексис Мейтленд, Синтия Бурк, Кейт Драммонд-О фильме:
В результате чудовищной вспышки на Солнце, «Гелиос» — новая экспериментальная установка по получению энергии дает сбой, и излишки солнечной плазмы образуют магнитный вихрь невероятной силы. Железный смерч начинает двигаться в сторону Филадельфии, поглощая все металлическое на своем пути и неся гибель всему живому.
Астрофизики Майкл Эдвардс и Ребекка Адлер пытаются понять природу смерча и предупредить руководство эксперимента о смертельной опасности. Но руководитель проекта Джонатан Кейн, игнорируя предупреждения, активирует другие станции в Австралии, Японии и Франции. Теперь гибель грозит всей планете…-Качество: BDRip 720p
Формат: MKV
Видеокодек: H.264
Аудиокодек: AC3 / DTS
Видео: MPEG-4 AVC, 4572 Кбит/с, 1280x720, 23.976 кадр/с, 0.207 Бит/(Пиксели*Кадры)
Аудио: Russian: AC3, 384 kb/s (6 ch) / English: DTS, 1510 kb/s (6 ch)-Семпл: http://multi-up.com/722925
-Доп.Информация
-Релиз группы: MI

MI

Complete name : Zheleznyj.smerch.2011.P.BDRip.720p.IRONCLUB.mkv
Format : Matroska
File size : 4.07 GiB
Duration : 1h 30mn
Overall bit rate : 6 462 Kbps
Movie name : Metal Tornado 2011 BDRip 720p IRONCLUB
Encoded date : UTC 2012-06-23 12:02:04
Writing application : mkvmerge v4.9.1 ('Ich will') сборка от Jul 11 2011 23:53:15
Writing library : libebml v1.2.1 + libmatroska v1.1.1
Video
ID : 1
Format : AVC
Format/Info : Advanced Video Codec
Format profile : [url=mailto:High@L4.1]High@L4.1[/url]
Format settings, CABAC : Yes
Format settings, ReFrames : 9 frames
Muxing mode : Container profile=Unknown@4.1
Codec ID : V_MPEG4/ISO/AVC
Duration : 1h 30mn
Bit rate : 4 572 Kbps
Width : 1 280 pixels
Height : 720 pixels
Display aspect ratio : 16:9
Frame rate : 23.976 fps
Color space : YUV
Chroma subsampling : 4:2:0
Bit depth : 8 bits
Scan type : Progressive
Bits/(Pixel*Frame) : 0.207
Stream size : 2.79 GiB (69%)
Title : Metal Tornado 2011 BDRip 720p IRONCLUB
Writing library : x264 core 119 r2106 07efeb4
Encoding settings : cabac=1 / ref=9 / deblock=1:-3:-3 / analyse=0x3:0x133 / me=umh / subme=10 / psy=1 / psy_rd=1.00:0.10 / mixed_ref=1 / me_range=48 / chroma_me=1 / trellis=2 / 8x8dct=1 / cqm=0 / deadzone=21,11 / fast_pskip=0 / chroma_qp_offset=-3 / threads=6 / sliced_threads=0 / nr=0 / decimate=0 / interlaced=0 / bluray_compat=0 / constrained_intra=0 / bframes=6 / b_pyramid=2 / b_adapt=2 / b_bias=0 / direct=3 / weightb=1 / open_gop=0 / weightp=2 / keyint=360 / keyint_min=2 / scenecut=40 / intra_refresh=0 / rc_lookahead=60 / rc=2pass / mbtree=1 / bitrate=4572 / ratetol=1.0 / qcomp=0.70 / qpmin=0 / qpmax=69 / qpstep=4 / cplxblur=20.0 / qblur=0.5 / ip_ratio=1.40 / aq=2:1.00
Audio #1
ID : 2
Format : AC-3
Format/Info : Audio Coding 3
Mode extension : CM (complete main)
Codec ID : A_AC3
Duration : 1h 30mn
Bit rate mode : Constant
Bit rate : 384 Kbps
Channel(s) : 6 channels
Channel positions : Front: L C R, Side: L R, LFE
Sampling rate : 48.0 KHz
Bit depth : 16 bits
Stream size : 247 MiB (6%)
Title : DD 5.1 @ 384 kbps - MVO, R5
Language : Russian
Audio #2
ID : 3
Format : DTS
Format/Info : Digital Theater Systems
Codec ID : A_DTS
Duration : 1h 30mn
Bit rate mode : Constant
Bit rate : 1 510 Kbps
Channel(s) : 6 channels
Channel positions : Front: L C R, Side: L R, LFE
Sampling rate : 48.0 KHz
Bit depth : 24 bits
Stream size : 973 MiB (23%)
Title : DTS 5.1 @ 1536 kbps
Text
ID : 4
Format : UTF-8
Codec ID : S_TEXT/UTF8
Codec ID/Info : UTF-8 Plain Text
Language : Russian

Скриншоты:

0 человек читают эту тему: 0 пользователей, 0 скрытых пользователей, 0 гостей

Показать сообщения:    

Текущее время: 24-Авг 09:48

Часовой пояс: UTC - 1


Вы не можете начинать темы
Вы не можете отвечать на сообщения
Вы не можете редактировать свои сообщения
Вы не можете удалять свои сообщения
Вы не можете голосовать в опросах
Вы не можете прикреплять файлы к сообщениям
Вы не можете скачивать файлы

!ВНИМАНИЕ!
Сайт не предоставляет электронные версии произведений, а занимается лишь коллекционированием и каталогизацией ссылок, присылаемых и публикуемых на форуме нашими читателями. Если вы являетесь правообладателем какого-либо представленного материала и не желаете, чтобы ссылка на него находилась в нашем каталоге, свяжитесь с нами, и мы незамедлительно удалим ее. Файлы для обмена на трекере предоставлены пользователями сайта, и администрация не несет ответственности за их содержание. Просьба не заливать файлы, защищенные авторскими правами, а также файлы нелегального содержания!