Ивановский Торрент трекер
Яндекс.Погода
Статистика раздачи
Размер:  6.34 GB   |    Зарегистрирован:  1 год 2 месяца   |    Скачан:  0 раз

Полного источника не было: Никогда

 
     
 
 
 

[Цитировать]
HUNTER

Железный Ганс / Der EisenhansЛучшие волшебные сказки Страна: Германия, Австрия
Жанр: фэнтези
Год выпуска: 2011
Продолжительность: 01:23:11
Перевод: Профессиональный (многоголосый закадровый) Игмар
Cубтитры: нет
Оригинальная аудиодорожка: нет
Режиссер: Мануэль Зибенманн / Manuel Siebenmann
В ролях: Лоуренс Рапп, Паула Шрамм, Михаэль Мендль, Андре Хеннике, Марион Миттерхаммер, Йохан Адам Эст, Leo Conzen, Вольфганг С. Цехмайер, Карл Фишер, Александр Ягш
Описание: В пределах замка стали пропадать люди. Спустя время нашелся смельчак, который смог обнаружить причину этих исчезновений и привел в замок Железного Ганса, хозяйничавшего в лесу. Лесного человека посадили в клетку, но тот хитростью заставил юного королевича открыть замок, да еще и унес мальчика с собой в лес. Однако Железный Ганс оказался не столь страшен, как представлялось поначалу…
Кинопоиск: https://www.kinopoisk.ru/film/654137/
Сэмпл: http://multi-up.com/1118711
Тип релиза: HDTV 1080i
Контейнер: TS
Видео: AVC/H.264, PAL, 1920х1080 (16:9), 25 fps, 10,2 Мбит/сек
Аудио: русский, MP2, 48000 Hz, 192 Кбит/сек, 2 ch

MediaInfo

Общее
Идентификатор : 1 (0x1)
Полное имя : D:\Раздачи\Железный Ганс.ts
Формат : MPEG-TS
Размер файла : 6,34 Гбайт
Продолжительность : 1 ч. 23 м.
Режим общего битрейта : Переменный
Общий поток : 10,9 Мбит/сек
Максимальный общий битрейт : 35,5 Мбит/сек
Видео
Идентификатор : 4113 (0x1011)
Идентификатор меню : 1 (0x1)
Формат : AVC
Формат/Информация : Advanced Video Codec
Профиль формата : Main@L4.0
Параметр CABAC формата : Да
Параметр ReFrames формата : 4 кадра
Идентификатор кодека : 27
Продолжительность : 1 ч. 23 м.
Вид битрейта : Переменный
Битрейт : 10,2 Мбит/сек
Максимальный битрейт : 40,0 Мбит/сек
Ширина : 1920 пикселей
Высота : 1080 пикселей
Соотношение сторон : 16:9
Частота кадров : 25,000 кадров/сек
Цветовое пространство : YUV
Субдискретизация насыщенности : 4:2:0
Битовая глубина : 8 бит
Тип развёртки : Чересстрочная
Порядок развёртки : Верхнее поле первое
Бит/(Пиксели*Кадры) : 0.196
Размер потока : 5,91 Гбайт (93%)
Основные цвета : BT.709
Характеристики трансфера : BT.709
Коэффициенты матрицы : BT.709
colour_range : Limited
Аудио
Идентификатор : 4352 (0x1100)
Идентификатор меню : 1 (0x1)
Формат : MPEG Audio
Версия формата : Version 1
Профиль формата : Layer 2
Идентификатор кодека : 4
Продолжительность : 1 ч. 23 м.
Вид битрейта : Постоянный
Битрейт : 192 Кбит/сек
Каналы : 2 канала
Частота : 48,0 КГц
Метод сжатия : С потерями
Размер потока : 114 Мбайт (2%)
Язык : Russian

Скриншоты меню

Скриншоты

[iv-torrents.ru].t62011.torrent
Торрент: Зарегистрирован [ 2016-09-20 18:14 ] · 0CB2ED8C139D73E26091FF0E2FA9031CB6EF302E

Скачать .torrent

Скачать

32 KB

Статус: проверено
Скачан: 0 раз
Размер: 6.34 GB
terms.php


Показать сообщения:    

Текущее время: 16-Дек 09:26

Часовой пояс: UTC ± 0


Вы не можете начинать темы
Вы не можете отвечать на сообщения
Вы не можете редактировать свои сообщения
Вы не можете удалять свои сообщения
Вы не можете голосовать в опросах
Вы не можете прикреплять файлы к сообщениям
Вы можете скачивать файлы

!ВНИМАНИЕ!
Сайт не предоставляет электронные версии произведений, а занимается лишь коллекционированием и каталогизацией ссылок, присылаемых и публикуемых на форуме нашими читателями. Если вы являетесь правообладателем какого-либо представленного материала и не желаете, чтобы ссылка на него находилась в нашем каталоге, свяжитесь с нами, и мы незамедлительно удалим ее. Файлы для обмена на трекере предоставлены пользователями сайта, и администрация не несет ответственности за их содержание. Просьба не заливать файлы, защищенные авторскими правами, а также файлы нелегального содержания!