Ивановский Торрент трекер
Яндекс.Погода
 

[Цитировать]
HUNTER

Еда, выращенная Джимми. Рождественский ужин / Jimmy's grow your own christmas dinner
Страна: Соединённое Королевство Великобритании и Северной Ирландии
Тематика: Кулинарное шоу
Тип раздаваемого материала: Видеоурок
Продолжительность: 00:46:31
Год выпуска: 2011
Язык: Русский
Перевод: Профессиональный (одноголосый)
Язык субтитров: нет
Описание: Джимми Доэрти посетит птицефабрику и поля по выращиванию овощей. Придутся ли его гостям по вкусу блюда для рождественского стола, ингредиенты для которых Джимми вырастил сам?
Доп. информация:

Чистая запись с канала КухняТВ без перекодирования.

MediaInfo

General
ID                                       : 16 (0x10)
Complete name                            : E:\Jamie\Jimmy's.grow.your.own.christmas.dinner.ts
Format                                   : MPEG-TS
File size                                : 932 MiB
Duration                                 : 46mn 30s
Overall bit rate mode                    : Variable
Overall bit rate                         : 2 800 Kbps
Video
ID                                       : 328 (0x148)
Menu ID                                  : 3 (0x3)
Format                                   : MPEG Video
Format version                           : Version 2
Format profile                           : Main@Main
Format settings, BVOP                    : Yes
Format settings, Matrix                  : Custom
Format settings, GOP                     : Variable
Codec ID                                 : 2
Duration                                 : 46mn 30s
Bit rate mode                            : Variable
Bit rate                                 : 2 468 Kbps
Maximum bit rate                         : 15.0 Mbps
Width                                    : 720 pixels
Height                                   : 576 pixels
Display aspect ratio                     : 4:3
Frame rate                               : 25.000 fps
Standard                                 : PAL
Color space                              : YUV
Chroma subsampling                       : 4:2:0
Bit depth                                : 8 bits
Scan type                                : Interlaced
Scan order                               : Top Field First
Compression mode                         : Lossy
Bits/(Pixel*Frame)                       : 0.238
Time code of first frame                 : 00:00:00:00
Time code source                         : Group of pictures header
Stream size                              : 821 MiB (88%)
Audio
ID                                       : 416 (0x1A0)
Menu ID                                  : 3 (0x3)
Format                                   : MPEG Audio
Format version                           : Version 1
Format profile                           : Layer 2
Codec ID                                 : 3
Duration                                 : 46mn 30s
Bit rate mode                            : Constant
Bit rate                                 : 192 Kbps
Channel count                            : 2 channels
Sampling rate                            : 48.0 KHz
Compression mode                         : Lossy
Stream size                              : 63.9 MiB (7%)
Качество: DVB
Формат: TS
Видео кодек: MPEG2
Аудио кодек: MP2
Видео: MPG2 720x576 (4:3) 25fps 2800 Kbps
Аудио: MPEG Audio 48000Hz stereo 192 Kbps

Скриншоты.Яндекс


Скриншоты.Fastpic


[/url]


Показать сообщения:    

Текущее время: 14-Дек 15:24

Часовой пояс: UTC ± 0


Вы не можете начинать темы
Вы не можете отвечать на сообщения
Вы не можете редактировать свои сообщения
Вы не можете удалять свои сообщения
Вы не можете голосовать в опросах
Вы не можете прикреплять файлы к сообщениям
Вы не можете скачивать файлы

!ВНИМАНИЕ!
Сайт не предоставляет электронные версии произведений, а занимается лишь коллекционированием и каталогизацией ссылок, присылаемых и публикуемых на форуме нашими читателями. Если вы являетесь правообладателем какого-либо представленного материала и не желаете, чтобы ссылка на него находилась в нашем каталоге, свяжитесь с нами, и мы незамедлительно удалим ее. Файлы для обмена на трекере предоставлены пользователями сайта, и администрация не несет ответственности за их содержание. Просьба не заливать файлы, защищенные авторскими правами, а также файлы нелегального содержания!