Важное объявление!
У Нас Все раздачи мультитрекерные, при нуле пиров в релизах, можете смело вставать на закачку!
 
Автор Сообщение

Savaris

Стаж:
6 лет 3 месяца
Сообщений:
156

Репутация: 40

[+] [-]
Вне форума [Профиль] [ЛС]


Евангелион 3.33: Ты (не) Исправишь / Evangelion: 3.0 You Can (Not) Redo / Evangelion Shin Gekijouban: Q-
Страна: Япония
Год выпуска: 2012 г.
Жанр: фантастика, меха, драма
Тип: Movie
Продолжительность: 95 мин
Режиссер: Анно Хидэаки
Студия: Khara-Описание: После событий второго фильма, Икари Синдзи пробуждается в новом мире. Он не понимает, что происходит, но постепенно ему открывается пугающая истина. В результате Синдзи придется снова сражаться с ангелами вместе с неожиданными союзниками, преодолевая сопротивление бывших друзей. И снова судьба бросит его на передовую войны и заставит принимать решение за всё человечество. Что же он выберет в этот раз?-Качество: BDRip
Тип релиза: Без хардсаба
Формат видео: MKV
Релиз/Автор рипа: BB
Совместимость с бытовыми плеерами: Нет-Видео: AVC, 1280x542, 3352 kbps, 24 fps, 10 bit
Аудио: RUS, AC3, 192 kbps, 48KHz, 2ch (в составе контейнера) - Sample
Озвучка: Erinant, Skyfy, Makers, Lee-Ann, Kashi, Usagi

Подробные тех. данные

GeneralUnique ID : 214669879009667030595054752223368809656 (0xA17FEA31449CB65BBFD0BEB3EFBB8CB8)Complete name : B:\[FromAnime] Evangelion 3.33 You Can (Not) Redo.mkvFormat : MatroskaFormat version : Version 2File size : 2.37 GiBDuration : 1h 35mnOverall bit rate : 3 546 KbpsEncoded date : UTC 2013-06-12 12:11:22Writing application : mkvmerge v5.7.0 ('The Whirlwind') built on Jul 8 2012 20:08:51Writing library : libebml v1.2.3 + libmatroska v1.3.0
VideoID : 1Format : AVCFormat/Info : Advanced Video CodecFormat profile : High 10@L5.0Format settings, CABAC : YesFormat settings, ReFrames : 16 framesCodec ID : V_MPEG4/ISO/AVCDuration : 1h 35mnBit rate : 3 283 KbpsWidth : 1 280 pixelsHeight : 542 pixelsDisplay aspect ratio : 2.35:1Frame rate mode : ConstantFrame rate : 24.000 fpsColor space : YUVChroma subsampling : 4:2:0Bit depth : 10 bitsScan type : ProgressiveBits/(Pixel*Frame) : 0.197Stream size : 2.19 GiB (93%)Writing library : x264 core 128 r2216kMod 198a7eaEncoding settings : cabac=1 / ref=16 / deblock=1:-1:-2 / analyse=0x3:0x133 / me=umh / subme=10 / psy=1 / fade_compensate=0.00 / psy_rd=1.10:0.10 / mixed_ref=1 / me_range=32 / chroma_me=1 / trellis=2 / 8x8dct=1 / cqm=0 / deadzone=21,11 / fast_pskip=0 / chroma_qp_offset=-3 / threads=12 / lookahead_threads=2 / sliced_threads=0 / nr=0 / decimate=1 / interlaced=0 / bluray_compat=0 / constrained_intra=0 / bframes=16 / b_pyramid=2 / b_adapt=2 / b_bias=0 / direct=3 / weightb=1 / open_gop=0 / weightp=2 / keyint=250 / keyint_min=24 / scenecut=40 / intra_refresh=0 / rc_lookahead=80 / rc=crf / mbtree=1 / crf=14.0000 / qcomp=0.60 / qpmin=0 / qpmax=81 / qpstep=4 / ip_ratio=1.40 / aq=3:1.00Language : JapaneseDefault : YesForced : Yes
AudioID : 2Format : AC-3Format/Info : Audio Coding 3Mode extension : CM (complete main)Format settings, Endianness : BigCodec ID : A_AC3Duration : 1h 35mnBit rate mode : ConstantBit rate : 192 KbpsChannel(s) : 2 channelsChannel positions : Front: L RSampling rate : 48.0 KHzBit depth : 16 bitsCompression mode : LossyStream size : 131 MiB (5%)Title : FromAnimeLanguage : RussianDefault : YesForced : No

Скриншоты

-Источник:

_________________

Показать сообщения:    

Текущее время: Сегодня 01:09

Часовой пояс: GMT



Вы не можете начинать темы
Вы не можете отвечать на сообщения
Вы не можете редактировать свои сообщения
Вы не можете удалять свои сообщения
Вы не можете голосовать в опросах
Вы не можете прикреплять файлы к сообщениям
Вы не можете скачивать файлы