Важное объявление!
У Нас Все раздачи мультитрекерные, при нуле пиров в релизах, можете смело вставать на закачку!
 
Автор Сообщение

Savaris

Стаж:
6 лет
Сообщений:
156

Репутация: 40

[+] [-]
Вне форума [Профиль] [ЛС]

Евангелион 2.22 Ты [Не] Пройдешь
Evangelion: 2.22 You Can [Not] Advance
Evangelion Shin Gekijouban: Ha
Страна: Япония
Год выпуска: 2009 г.
Жанр: драма, фантастика, меха
Продолжительность: 108 мин.
Режиссер: Масаюки
Студия: Studio Khara
-Перевод:
  • русские субтитры от Evangelion NOT END
    (Перевод: Ghost13, asuka-joy; Тайминг: Rosetau, Cloud M.D., asuka-joy)
-Озвучка:
  • многоголосая от SHIZA Project
    (участники: NIKITOS, Venera, Azazel & Viki)
  • двухголосая (муж., жен.) от Лилия Тростянская и Тим Вагнер (CinemaSET GROUP)
  • одногоголосая (жен.) от Persona99 (Get Smart)
-Описание: Прошло 15 лет после загадочной глобальной катастрофы, поставившей человечество на грань выживания. Но оставшихся в живых впереди ждут еще более страшные испытания... Землю атакуют "Ангелы", загадочные гигантские существа, появившиеся неизвестно откуда. Единственное оружие на планете, способное им противостоять - роботы серии "Евангелион", созданные при помощи передовых биотехнологий. Правда, сражаться с помощью этих огромных машин способны только те пилоты, которые могут полностью "синхронизировать" себя с роботом и управлять "Евангелионом" как собственным телом. Эти уникальные бойцы обучаются и живут в секретном подземном городе Токио-3, штаб-квартире организации "NERV", возглавляющей защиту Земли от вторжения. Синдзи, Аска и Рей - пилоты, между которыми складываются крайне непростые отношения. Но именно от них зависит судьба планеты и разгадка тайны зловещих "Ангелов"...-Качество: BDRip
Автор рипа: THORA
Тип релиза: Без хардсаба
Формат видео: MKV
Видео: x264 [8bit], 1280x720, 4785 Kbps, 23.976 fps
Аудио RUS#1 (int.): AC3, 448 kbps, 48000 Hz, 6ch - SHIZA
Аудио RUS#2 (int.): AC3, 640 kbps, 48000 Hz, 6ch - CinemaSET GROUP
Аудио RUS#3 (int.): AC3, 640 kbps, 48000 Hz, 6ch - Persona99
Аудио JAP: AC3, 640 kbps, 48000 Hz, 6ch

Подробные тех. данные

Формат : Matroska
Версия формата : Version 4 / Version 2
Размер файла : 5,72 Гбайт
Продолжительность : 1 ч. 52 м.
Общий поток : 7298 Кбит/сек
Название фильма : Evangelion 2.22: You Can (Not) Advance
Дата кодирования : UTC 2013-06-06 17:14:37
Программа кодирования : mkvmerge v6.2.0 ('Promised Land') built on Apr 28 2013 12:22:01
Библиотека кодирования : libebml v1.3.0 + libmatroska v1.4.0
Attachment : Yes / Yes / Yes / Yes / Yes / Yes / Yes / Yes / Yes / Yes / Yes / Yes
Видео
Идентификатор : 1
Формат : AVC
Формат/Информация : Advanced Video Codec
Профиль формата : High@L4.1
Параметр CABAC формата : Да
Параметр ReFrames формата : 7 кадров
Идентификатор кодека : V_MPEG4/ISO/AVC
Продолжительность : 1 ч. 52 м.
Битрейт : 4785 Кбит/сек
Ширина : 1280 пикселей
Высота : 720 пикселей
Соотношение сторон : 16:9
Режим частоты кадров : Постоянный
Частота кадров : 23,976 кадра/сек
Цветовое пространство : YUV
Субдискретизация насыщенности : 4:2:0
Битовая глубина : 8 бит
Тип развёртки : Прогрессивная
Бит/(Пиксели*Кадры) : 0.217
Размер потока : 3,75 Гбайт (66%)
Библиотека кодирования : x264 core 0000000000000000
Настройки программы : 000000000000000000000000000000000000000000000000000000000000000000000000000000000000000000000000000000000000000000000000000000000000000000000000000000000000000000000000000000000000000000000000000000000000000000000000000000000000000000000000000000000000000000000000000000000000000000000000000000000000000000000000000000000000000000000000000000000000000000000000000000000000000000000000000000000000000000000000000000000000000000000000000000000000000000000000000000000000000000000000000000000000000000000000000000000000000000000000000000000000000000000000000000000000000000000000000000000000000000000000000000000000000000000000000000000000000000000000000000000000000000000000000000000000000000000000000000000000000000000000000000000000000000000000000000000000000000000000000000000000000000000000000000000000000000000000000000000000000000000000000000000000000000000000000000000000000000000000000000000000000000000000000000000000000000000000000000000000000000000000000000000000000000000000000000000000000000000000000000000000000000000000000000000000000000000000000000000000000000000000000000000000000000000000000000000000000000000000000000000000000000000000000000000000000
Язык : Japanese
Default : Нет
Forced : Нет
Аудио #1
Идентификатор : 2
Формат : AC-3
Формат/Информация : Audio Coding 3
Расширение режима : CM (complete main)
Параметр Endianness формата : Big
Идентификатор кодека : A_AC3
Продолжительность : 1 ч. 52 м.
Вид битрейта : Постоянный
Битрейт : 448 Кбит/сек
Каналы : 6 каналов
Расположение каналов : Front: L C R, Side: L R, LFE
Частота : 48,0 КГц
Битовая глубина : 16 бит
Метод сжатия : С потерями
Размер потока : 359 Мбайт (6%)
Заголовок : SHIZA
Язык : Russian
Default : Да
Forced : Нет
Аудио #2
Идентификатор : 3
Формат : AC-3
Формат/Информация : Audio Coding 3
Расширение режима : CM (complete main)
Параметр Endianness формата : Big
Идентификатор кодека : A_AC3
Продолжительность : 1 ч. 52 м.
Вид битрейта : Постоянный
Битрейт : 640 Кбит/сек
Каналы : 6 каналов
Расположение каналов : Front: L C R, Side: L R, LFE
Частота : 48,0 КГц
Битовая глубина : 16 бит
Метод сжатия : С потерями
Размер потока : 513 Мбайт (9%)
Заголовок : CinemaSET GROUP
Язык : Russian
Default : Нет
Forced : Нет
Аудио #3
Идентификатор : 4
Формат : AC-3
Формат/Информация : Audio Coding 3
Расширение режима : CM (complete main)
Параметр Endianness формата : Big
Идентификатор кодека : A_AC3
Продолжительность : 1 ч. 52 м.
Вид битрейта : Постоянный
Битрейт : 640 Кбит/сек
Каналы : 6 каналов
Расположение каналов : Front: L C R, Side: L R, LFE
Частота : 48,0 КГц
Битовая глубина : 16 бит
Метод сжатия : С потерями
Размер потока : 513 Мбайт (9%)
Заголовок : Persona99
Язык : Russian
Default : Нет
Forced : Нет
Аудио #4
Идентификатор : 5
Формат : AC-3
Формат/Информация : Audio Coding 3
Расширение режима : CM (complete main)
Параметр Endianness формата : Big
Идентификатор кодека : A_AC3
Продолжительность : 1 ч. 52 м.
Вид битрейта : Постоянный
Битрейт : 640 Кбит/сек
Каналы : 6 каналов
Расположение каналов : Front: L C R, Side: L R, LFE
Частота : 48,0 КГц
Битовая глубина : 16 бит
Метод сжатия : С потерями
Размер потока : 513 Мбайт (9%)
Язык : Japanese
Default : Нет
Forced : Нет
-Источник:

_________________

Показать сообщения:    

Текущее время: Сегодня 19:55

Часовой пояс: GMT



Вы не можете начинать темы
Вы не можете отвечать на сообщения
Вы не можете редактировать свои сообщения
Вы не можете удалять свои сообщения
Вы не можете голосовать в опросах
Вы не можете прикреплять файлы к сообщениям
Вы не можете скачивать файлы
Наши партнеры: интернет магазин Ивановского трикотажа textilla.ru