Важное объявление!
У Нас Все раздачи мультитрекерные, при нуле пиров в релизах, можете смело вставать на закачку!
 
Автор Сообщение

Savaris

Стаж:
6 лет 3 месяца
Сообщений:
156

Репутация: 40

[+] [-]
Вне форума [Профиль] [ЛС]

-
Год выпуска: 2007
Страна: Япония
Жанр: полнометражный фильм
Продолжительность: 98 мин.-Перевод:
  • русские субтитры от Reanimedia (стилизованные)
-Озвучка:
  • одноголосая (жен.) от Kasumi
  • одноголосая (жен.) от Харука
  • многоголосая (дубляж) от Reanimedia
-Режиссер: Масаюки
Студия: Studio Khara-Описание:
Прошло 15 лет после загадочной глобальной катастрофы, поставившей человечество на грань выживания. Но оставшихся в живых впереди ждут еще более страшные испытания... Землю атакуют "Ангелы", загадочные гигантские существа, появившиеся неизвестно откуда. Единственное оружие на планете, способное им противостоять - роботы серии "Евангелион", созданные при помощи передовых биотехнологий. Правда, сражаться с помощью этих огромных машин способны только те пилоты, которые могут полностью "синхронизировать" себя с роботом и управлять "Евангелионом" как собственным телом. Эти уникальные бойцы обучаются и живут в секретном подземном городе Токио-3, штаб-квартире организации "NERV", возглавляющей защиту Земли от вторжения. Синдзи, Аска и Рей - пилоты, между которыми складываются крайне непростые отношения. Но именно от них зависит судьба планеты и разгадка тайны зловещих "Ангелов"...
© World Art
Первый фильм охватывает эпизоды оригинального сериала с первого по шестой.-Информационные ссылки: AniDB || World Art || MAL-Качество: BDRip
Энкод: Winter - RG Pantheon
Тип видео: без хардсаба
Формат: mkv
Видео: x264 (Hi10p), 1280x720, ~2800 Kbps, 23.976 fps
Аудио JAP: AC3, 48000Hz, ~640 Kbps, 5.1ch
Аудио RUS 1,3: AC3, 48000Hz, ~640 Kbps, 5.1ch (внешним файлом)
Аудио RUS 2: AАC, 48000Hz, ~312 Kbps, 5.1ch (внешним файлом)-

Скриншоты


Подробные тех. данные

Общее
Уникальный идентификатор : 214128576185149953496526230407160407686 (0xA117A9E716F3FE119C7D2B34D92E2686)
Полное имя : Z:\Evangelion 1.11 You Are (Not) Alone [BD] [720p]\[Winter] Evangelion 1.11 - You Are (Not) Alone [BDrip 1280x720 x264 AC-3].mkv
Формат : Matroska
Версия формата : Version 2
Размер файла : 2,83 Гбайт
Продолжительность : 1 ч. 40 м.
Общий поток : 4012 Кбит/сек
Дата кодирования : UTC 2013-05-12 16:08:56
Программа кодирования : mkvmerge v2.9.8 ('C'est le bon') built on Aug 13 2009 12:49:06
Библиотека кодирования : libebml v0.7.7 + libmatroska v0.8.1
Видео
Идентификатор : 1
Формат : AVC
Формат/Информация : Advanced Video Codec
Профиль формата : High 10@L4.1
Параметр CABAC формата : Да
Параметр ReFrames формата : 9 кадров
Идентификатор кодека : V_MPEG4/ISO/AVC
Продолжительность : 1 ч. 40 м.
Битрейт : 3292 Кбит/сек
Ширина : 1280 пикселей
Высота : 720 пикселей
Соотношение сторон : 16:9
Режим частоты кадров : Постоянный
Частота кадров : 23,976 кадра/сек
Цветовое пространство : YUV
Субдискретизация насыщенности : 4:2:0
Битовая глубина : 10 бит
Тип развёртки : Прогрессивная
Бит/(Пиксели*Кадры) : 0.149
Размер потока : 2,32 Гбайт (82%)
Библиотека кодирования : x264 core 125 r2200 999b753
Настройки программы : cabac=1 / ref=9 / deblock=1:-2:-2 / analyse=0x3:0x133 / me=umh / subme=9 / psy=1 / psy_rd=0.90:0.00 / mixed_ref=1 / me_range=24 / chroma_me=1 / trellis=2 / 8x8dct=1 / cqm=0 / deadzone=21,11 / fast_pskip=1 / chroma_qp_offset=-2 / threads=6 / lookahead_threads=1 / sliced_threads=0 / nr=0 / decimate=0 / interlaced=0 / bluray_compat=0 / constrained_intra=0 / bframes=8 / b_pyramid=2 / b_adapt=2 / b_bias=0 / direct=1 / weightb=1 / open_gop=0 / weightp=2 / keyint=250 / keyint_min=23 / scenecut=40 / intra_refresh=0 / rc=crf / mbtree=0 / crf=15.6 / qcomp=0.70 / qpmin=9 / qpmax=40 / qpstep=4 / ip_ratio=1.40 / pb_ratio=1.30 / aq=1:0.90
Default : Нет
Forced : Нет
Аудио
Идентификатор : 2
Формат : AC-3
Формат/Информация : Audio Coding 3
Расширение режима : CM (complete main)
Параметр Endianness формата : Big
Идентификатор кодека : A_AC3
Продолжительность : 1 ч. 40 м.
Вид битрейта : Постоянный
Битрейт : 640 Кбит/сек
Каналы : 6 каналов
Расположение каналов : Front: L C R, Side: L R, LFE
Частота : 48,0 КГц
Битовая глубина : 16 бит
Метод сжатия : С потерями
Размер потока : 462 Мбайт (16%)
Язык : Japanese
Default : Да
Forced : Нет
- -

Информация о релизе

  • Выбор видео, перевода, озвучки, а также типа сборки материала осуществляется релизером и не подлежит обсуждению. Если вы считаете, что раздаваемый материал противоречит правилам раздела "Аниме" rutracker.org, сообщите об этом одному из модераторов раздела.
  • В случае появления нового материала или же лучшего по качеству материала релизер оставляет за собой право обновить раздачу. В этом случае вам необходимо ознакомиться с изменениями (добавлениями) и перекачать торрент.
  • Данный релиз предназначен для просмотра на ПК. Воспроизведение на иных проигрывателях не гарантируется. Для просмотра рекомендуется Media Player Classic с установленным пакетом кодеков K-Lite.
  • Данный релиз содержит 10-битное видео (Hi10p). Для корректного воспроизведения обязательно используйте кодеки, поддерживающие 10-битное видео.
    Обсудить частные случаи проблем с воспроизведением и получить дополнительную информацию можно здесь.
  • Данный релиз предназначен для просмотра с внешними субтитрами и внешними звуковыми дорожками.
    • Для просмотра с внешней звуковой дорожкой нужно:
      перекинуть файлы .mka из папки "RUS Sound []" в одну папку с видео и переключить звуковую дорожку в плеере при просмотре. Как это сделать в разных плеерах подробно описано здесь.
    • Для просмотра с субтитрами нужно:
      перекинуть файлы .ass из папки "RUS Subtitles []" в одну папку с видео - плеер подгрузит их автоматически при открытии видео.
  • Если у вас возникли проблемы с просмотром, не связанные с описанным выше, сообщите о них автору раздачи посредством сообщения в теме или ЛС Savaris.
-Источник:

_________________

Показать сообщения:    

Текущее время: Сегодня 22:29

Часовой пояс: GMT



Вы не можете начинать темы
Вы не можете отвечать на сообщения
Вы не можете редактировать свои сообщения
Вы не можете удалять свои сообщения
Вы не можете голосовать в опросах
Вы не можете прикреплять файлы к сообщениям
Вы не можете скачивать файлы