Ивановский Торрент трекер
Яндекс.Погода
 

[Цитировать]
HUNTER

Дэниэл Бун / Daniel Boone
Страна: США
Жанр: Анимация, приключения, вестерн
Продолжительность: 00:48:02
Год выпуска: 1981
Перевод: Профессиональный (дублированный)
Русские субтитры: нет
Режиссёр: Джофф Коллинз / Geoff Collins
Роли озвучивали: Richard Crenna ... (voice)
John Stephenson ... (voice)
Joe Baker ... (voice)
Michael Bell ... (voice)
Janet Waldo ... (voice)
Joan Gerber ... (voice)
William Callaway ... (voice)
Описание: http://www.imdb.com/title/tt0175551/
На кинопоиске нет пока этого мульта.
Знаменитый американский первопоселенец и охотник Дэниэл Бун рассказывает нам свою реальную историю, отделяя факты от вымыслов. Размышляя о совершённых достижениях на жизненном пути. И с непревзойдённым талантом описывая свои удивительные приключения на Диком Западе.
Благодаря этому мультфильму мы сможем увидеть его игривое детство, знакомство с Джорджем Вашингтоном и встречу с возлюбленной Ребеккой. Увидим полное опасностей путешествие по Кентукки. Захватывающую охоту на медведя голыми руками. И его невероятный побег от кровожадных индейцев.
Доп. информация: Оцифровка VHS (личный архив) и получение VHSRip alenavova
Эксклюзив для rutracker.org. При размещении данного релиза на других сайтах ссылка на автора alenavova обязательна.

Релиз
Семпл: https://yadi.sk/i/-de5LIS9iBQPF
Качество: VHSRip
Формат: AVI
Видео: 640x480 (1.33:1), 25 fps, XviD build 50 ~1981 kbps avg, 0.26 bit/pixel
Аудио: 48 kHz, AC3 Dolby Digital, 2/0 (L,R) ch, ~192 kbps
Субтитры: отсутствуют

Подробные технические данные

Дэниэл Бун - Daniel Boone [by alenavova].aviFormat : AVIFormat/Info : Audio Video InterleaveFile size : 750 MiBDuration : 48mn 2sOverall bit rate : 2 184 KbpsMovie name : Дэниэл Бун - Daniel Boone [by alenavova]Director : by alenavovaWriting application : VirtualDubMod 1.5.10.3 | www.virtualdub-fr.org || (build 2550/release)Copyright : Edich2Comment : RuTracker.org
VideoID : 0Format : MPEG-4 VisualFormat profile : Advanced Simple@L5Format settings, BVOP : 1Format settings, QPel : NoFormat settings, GMC : No warppointsFormat settings, Matrix : Default (MPEG)Codec ID : XVIDCodec ID/Hint : XviDDuration : 48mn 2sBit rate : 1 982 KbpsWidth : 640 pixelsHeight : 480 pixelsDisplay aspect ratio : 4:3Frame rate : 25.000 fpsColor space : YUVChroma subsampling : 4:2:0Bit depth : 8 bitsScan type : ProgressiveCompression mode : LossyBits/(Pixel*Frame) : 0.258Stream size : 681 MiB (91%)Writing library : XviD 1.2.1 (UTC 2008-12-04)
AudioID : 1Format : AC-3Format/Info : Audio Coding 3Mode extension : CM (complete main)Format settings, Endianness : BigCodec ID : 2000Duration : 48mn 2sBit rate mode : ConstantBit rate : 192 KbpsChannel(s) : 2 channelsChannel positions : Front: L RSampling rate : 48.0 KHzBit depth : 16 bitsCompression mode : LossyStream size : 66.0 MiB (9%)Alignment : Split accross interleavesInterleave, duration : 40 ms (1.00 video frame)Interleave, preload duration : 500 ms

Скриншоты



Показать сообщения:    

Текущее время: 20-Сен 17:27

Часовой пояс: UTC - 1


Вы не можете начинать темы
Вы не можете отвечать на сообщения
Вы не можете редактировать свои сообщения
Вы не можете удалять свои сообщения
Вы не можете голосовать в опросах
Вы не можете прикреплять файлы к сообщениям
Вы не можете скачивать файлы

!ВНИМАНИЕ!
Сайт не предоставляет электронные версии произведений, а занимается лишь коллекционированием и каталогизацией ссылок, присылаемых и публикуемых на форуме нашими читателями. Если вы являетесь правообладателем какого-либо представленного материала и не желаете, чтобы ссылка на него находилась в нашем каталоге, свяжитесь с нами, и мы незамедлительно удалим ее. Файлы для обмена на трекере предоставлены пользователями сайта, и администрация не несет ответственности за их содержание. Просьба не заливать файлы, защищенные авторскими правами, а также файлы нелегального содержания!