Ивановский Торрент трекер
Яндекс.Погода
 

[Цитировать]
HUNTER

ДьяволDiablo- Год выпуска: 2015
Страна: США, Канада
Жанр: боевик, триллер, приключения, вестерн
Продолжительность: 01:23:11-Перевод: Любительский (двухголосый) [Parovoz Production]
Субтитры: Нет
Режиссер: Лоуренс Рёк / Lawrence Roeck
В ролях: Скотт Иствуд (Jackson), Уолтон Гоггинс (Ezra), Камилла Белль (Alexsandra), Samuel Marty (Ishani), Дэнни Гловер (Benjamin Carver), Адам Бич (Nakoma), Roberto Franco (Cesar), Диего Диабло Дель Мар (Miguel), Неста Купер (Rebecca Carver), Уильям Белло (Muskwa), Моррис Бердйеллоухэд (Pitikwa), Ци Ма (Quok Mi)-Описание: Бывший солдат гражданской войны с посттравматическим синдромом пытается спасти свою жену, которую похитили. Он идет по следу похитителей... Травма дает о себе знать и он переживает все ужасы дьявольской войны, которые вернулись, чтобы преследовать его...--Качество: WEB-DLRip-AVC
Контейнер: MKV
Видео кодек: AVC
Аудио кодек: AC3
Видео: AVC, 1040x448 (2.40:1), 1931 kbps, 23,976 fps, 0,173 bpp
Аудио №1: Русский / AC3 / 2.0 / 48 kHz / 192 kbps / 16 bit
Аудио №2: Английский / AC3 / 5.1 / 48 kHz / 384 kbps / 16 bit-

Рейтинг

------ 5.1 (10500)
-

Скриншоты

Media Info

General
Unique ID : 219761968424289732723281826033806950475 (0xA5549D9582671B719AA02CC22B71404B)
Complete name : D:\Дьявол.2015.L2.WEB-DLRip.mkv
Format : Matroska
Format version : Version 4 / Version 2
File size : 1.49 GiB
Duration : 1h 23mn
Overall bit rate : 2 558 Kbps
Encoded date : UTC 2016-01-12 08:00:01
Writing application : mkvmerge v7.8.0 ('River Man') 32bit built on Mar 27 2015 16:18:02
Writing library : libebml v1.3.1 + libmatroska v1.4.2
Video
ID : 1
Format : AVC
Format/Info : Advanced Video Codec
Format profile : High@L4.1
Format settings, CABAC : Yes
Format settings, ReFrames : 3 frames
Codec ID : V_MPEG4/ISO/AVC
Duration : 1h 23mn
Bit rate : 1 931 Kbps
Nominal bit rate : 2 100 Kbps
Width : 1 040 pixels
Height : 448 pixels
Display aspect ratio : 2.40:1
Frame rate mode : Variable
Frame rate : 23.976 fps
Color space : YUV
Chroma subsampling : 4:2:0
Bit depth : 8 bits
Scan type : Progressive
Bits/(Pixel*Frame) : 0.173
Stream size : 1.12 GiB (75%)
Writing library : x264 core 128 r2216M 198a7ea
Encoding settings : cabac=1 / ref=3 / deblock=1:-1:-1 / analyse=0x3:0x133 / me=hex / subme=7 / psy=1 / psy_rd=1.00:0.15 / mixed_ref=1 / me_range=16 / chroma_me=1 / trellis=1 / 8x8dct=1 / cqm=0 / deadzone=21,11 / fast_pskip=1 / chroma_qp_offset=-3 / threads=8 / lookahead_threads=1 / sliced_threads=0 / nr=0 / decimate=1 / interlaced=0 / bluray_compat=0 / constrained_intra=0 / bframes=3 / b_pyramid=1 / b_adapt=2 / b_bias=0 / direct=3 / weightb=1 / open_gop=0 / weightp=2 / keyint=230 / keyint_min=23 / scenecut=40 / intra_refresh=0 / rc_lookahead=40 / rc=abr / mbtree=1 / bitrate=2100 / ratetol=1.0 / qcomp=0.60 / qpmin=10 / qpmax=51 / qpstep=4 / ip_ratio=1.40 / aq=1:1.00
Language : English
Default : Yes
Forced : No
DURATION : 01:23:11.408000000
NUMBER_OF_FRAMES : 119674
NUMBER_OF_BYTES : 1235367291
_STATISTICS_WRITING_APP : mkvmerge v7.8.0 ('River Man') 32bit built on Mar 27 2015 16:18:02
_STATISTICS_WRITING_DATE_UTC : 2016-01-12 08:00:01
_STATISTICS_TAGS : BPS DURATION NUMBER_OF_FRAMES NUMBER_OF_BYTES
Audio #1
ID : 2
Format : AC-3
Format/Info : Audio Coding 3
Mode extension : CM (complete main)
Codec ID : A_AC3
Duration : 1h 23mn
Bit rate mode : Constant
Bit rate : 192 Kbps
Channel(s) : 2 channels
Channel positions : Front: L R
Sampling rate : 48.0 KHz
Bit depth : 16 bits
Compression mode : Lossy
Stream size : 114 MiB (8%)
Language : Russian
Default : Yes
Forced : No
DURATION : 01:23:11.456000000
NUMBER_OF_FRAMES : 155983
NUMBER_OF_BYTES : 119794944
_STATISTICS_WRITING_APP : mkvmerge v7.8.0 ('River Man') 32bit built on Mar 27 2015 16:18:02
_STATISTICS_WRITING_DATE_UTC : 2016-01-12 08:00:01
_STATISTICS_TAGS : BPS DURATION NUMBER_OF_FRAMES NUMBER_OF_BYTES
Audio #2
ID : 3
Format : AC-3
Format/Info : Audio Coding 3
Mode extension : CM (complete main)
Codec ID : A_AC3
Duration : 1h 23mn
Bit rate mode : Constant
Bit rate : 384 Kbps
Channel(s) : 6 channels
Channel positions : Front: L C R, Side: L R, LFE
Sampling rate : 48.0 KHz
Bit depth : 16 bits
Compression mode : Lossy
Stream size : 228 MiB (15%)
Language : English
Default : No
Forced : No
DURATION : 01:23:11.424000000
NUMBER_OF_FRAMES : 155982
NUMBER_OF_BYTES : 239588352
_STATISTICS_WRITING_APP : mkvmerge v7.8.0 ('River Man') 32bit built on Mar 27 2015 16:18:02
_STATISTICS_WRITING_DATE_UTC : 2016-01-12 08:00:01
_STATISTICS_TAGS : BPS DURATION NUMBER_OF_FRAMES NUMBER_OF_BYTES
Menu
00:00:00.000 : en:Chapter 1
00:06:42.000 : en:Chapter 2
00:14:20.000 : en:Chapter 3
00:21:40.000 : en:Chapter 4
00:29:00.000 : en:Chapter 5
00:36:09.000 : en:Chapter 6
00:41:55.000 : en:Chapter 7
00:51:05.000 : en:Chapter 8
00:57:53.000 : en:Chapter 9
01:03:19.000 : en:Chapter 10
01:10:00.000 : en:Chapter 11
01:17:27.000 : en:Chapter 12


Показать сообщения:    

Текущее время: 11-Дек 02:23

Часовой пояс: UTC ± 0


Вы не можете начинать темы
Вы не можете отвечать на сообщения
Вы не можете редактировать свои сообщения
Вы не можете удалять свои сообщения
Вы не можете голосовать в опросах
Вы не можете прикреплять файлы к сообщениям
Вы не можете скачивать файлы

!ВНИМАНИЕ!
Сайт не предоставляет электронные версии произведений, а занимается лишь коллекционированием и каталогизацией ссылок, присылаемых и публикуемых на форуме нашими читателями. Если вы являетесь правообладателем какого-либо представленного материала и не желаете, чтобы ссылка на него находилась в нашем каталоге, свяжитесь с нами, и мы незамедлительно удалим ее. Файлы для обмена на трекере предоставлены пользователями сайта, и администрация не несет ответственности за их содержание. Просьба не заливать файлы, защищенные авторскими правами, а также файлы нелегального содержания!