Ивановский Торрент трекер
Яндекс.Погода
Статистика раздачи
Размер:  6.83 GB   |    Зарегистрирован:  1 год 3 месяца   |    Скачан:  0 раз

Полного источника не было: Никогда

 
     
 
 
 

[Цитировать]
HUNTER

Дьявол носит «Prada» / The Devil Wears Prada / Open Matte
Страна: США
Жанр: драма, мелодрама, комедия
Год выпуска: 2006
Продолжительность: 01:41:55
Перевод: Профессиональный (дублированный)
Перевод 2: Профессиональный (двухголосый, закадровый)
Перевод 3: Авторский (одноголосый, закадровый) Гранкин
Перевод 4: Авторский (одноголосый, закадровый) Сербин
Cубтитры: русские (1 канал), русские, русские (надписи), английские
Оригинальная аудиодорожка: английский
Режиссер: Дэвид Фрэнкел / David Frankel
В ролях: Мэрил Стрип, Энн Хэтэуэй, Эмили Блант, Стэнли Туччи, Саймон Бэйкер, Адриан Гренье, Трейси Томс, Рич Соммер, Дэниэл Санжата, Дэвид Маршалл Грант
Описание: Мечтающая стать журналисткой провинциальная девушка Андреа по окончании университета получает должность помощницы всесильной Миранды Пристли, деспотичного редактора одного из крупнейших нью-йоркских журналов мод. Андреа всегда мечтала о такой работе, не зная, с каким нервным напряжением это будет связано...
Доп. информация: Запись с канала Первый HD. Из видеоряда удалены все послеркламные вставки с названием фильма. Добавлены дорожки с двухголосой и авторскими озвучками, оригинальная дорожка, субтитры русские и английские. HDTV имеет иное наполнение кадра чем BD http://screenshotcomparison.com/comparison/162088
Сэмпл: http://multi-up.com/1114759
Тип релиза: HDTV 1080i
Контейнер: mkv
Видео: AVC, 1920x1080 (16:9), 25.000 fps, 7 416 Kbps (0.143 bit/pixel)
Аудио: AC-3, 48.0 KHz, 6 ch, 448 Kbps, CBR (Russian) - дубляж
Аудио 2: AC-3, 48.0 KHz, 2 ch, 192 Kbps, CBR (Russian) - двухголосый
Аудио 3: AC-3, 48.0 KHz, 2 ch, 192 Kbps, CBR (Russian) - Гранкин
Аудио 4: AC-3, 48.0 KHz, 6 ch, 448 Kbps, CBR (Russian) - Сербин
Аудио 5: AC-3, 48.0 KHz, 6 ch, 448 Kbps, CBR (English)

MediaInfo

Общее
Уникальный идентификатор : 219751899093952393685880105021123643002 (0xA552AD20B152AB16866EB2C7F750C67A)
Полное имя : M:\Дьявол носит «Prada».mkv
Формат : Matroska
Версия формата : Version 2
Размер файла : 6,83 Гбайт
Продолжительность : 1 ч. 44 м.
Общий поток : 9329 Кбит/сек
Название фильма : Дьявол носит «Prada» / The Devil Wears Prada (2006)
Дата кодирования : UTC 2016-08-22 18:49:31
Программа кодирования : mkvmerge v8.2.0 ('World of Adventure') 64bit
Библиотека кодирования : libebml v1.3.1 + libmatroska v1.4.2
Видео
Идентификатор : 1
Формат : AVC
Формат/Информация : Advanced Video Codec
Профиль формата : Main@L4
Параметр CABAC формата : Да
Параметр ReFrames формата : 3 кадра
Идентификатор кодека : V_MPEG4/ISO/AVC
Продолжительность : 1 ч. 44 м.
Битрейт : 7416 Кбит/сек
Ширина : 1920 пикселей
Высота : 1080 пикселей
Соотношение сторон : 16:9
Режим частоты кадров : Постоянный
Частота кадров : 25,000 кадров/сек
Стандарт вещания : Component
Цветовое пространство : YUV
Субдискретизация насыщенности : 4:2:0
Битовая глубина : 8 бит
Тип развёртки : Чересстрочная
Метод сохранения типа развёртки : Раздельные поля
Порядок развёртки : Верхнее поле первое
Бит/(Пиксели*Кадры) : 0.143
Размер потока : 5,43 Гбайт (79%)
Язык : English
Default : Да
Forced : Нет
Цветовой диапазон : Limited
Основные цвета : BT.709
Характеристики трансфера : BT.709
Коэффициенты матрицы : BT.709
Аудио #1
Идентификатор : 2
Формат : AC-3
Формат/Информация : Audio Coding 3
Расширение режима : CM (complete main)
Параметр Endianness формата : Big
Идентификатор кодека : A_AC3
Продолжительность : 1 ч. 44 м.
Вид битрейта : Постоянный
Битрейт : 448 Кбит/сек
Каналы : 6 каналов
Расположение каналов : Front: L C R, Side: L R, LFE
Частота : 48,0 КГц
Частота кадров : 31,250 кадров/сек (1536 spf)
Метод сжатия : С потерями
Размер потока : 336 Мбайт (5%)
Заголовок : Профессиональный (дублированный)
Язык : Russian
Default : Да
Forced : Нет
Аудио #2
Идентификатор : 3
Формат : AC-3
Формат/Информация : Audio Coding 3
Расширение режима : CM (complete main)
Параметр Endianness формата : Big
Идентификатор кодека : A_AC3
Продолжительность : 1 ч. 44 м.
Вид битрейта : Постоянный
Битрейт : 192 Кбит/сек
Каналы : 2 канала
Расположение каналов : Front: L R
Частота : 48,0 КГц
Частота кадров : 31,250 кадров/сек (1536 spf)
Метод сжатия : С потерями
Размер потока : 144 Мбайт (2%)
Заголовок : Профессиональный (двухголосый закадровый)
Язык : Russian
Default : Нет
Forced : Нет
Аудио #3
Идентификатор : 4
Формат : AC-3
Формат/Информация : Audio Coding 3
Расширение режима : CM (complete main)
Параметр Endianness формата : Big
Идентификатор кодека : A_AC3
Продолжительность : 1 ч. 44 м.
Вид битрейта : Постоянный
Битрейт : 192 Кбит/сек
Каналы : 2 канала
Расположение каналов : Front: L R
Частота : 48,0 КГц
Частота кадров : 31,250 кадров/сек (1536 spf)
Метод сжатия : С потерями
Размер потока : 144 Мбайт (2%)
Заголовок : Авторский (одноголосый закадровый) Гранкин
Язык : Russian
Default : Нет
Forced : Нет
Аудио #4
Идентификатор : 5
Формат : AC-3
Формат/Информация : Audio Coding 3
Расширение режима : CM (complete main)
Параметр Endianness формата : Big
Идентификатор кодека : A_AC3
Продолжительность : 1 ч. 44 м.
Вид битрейта : Постоянный
Битрейт : 448 Кбит/сек
Каналы : 6 каналов
Расположение каналов : Front: L C R, Side: L R, LFE
Частота : 48,0 КГц
Частота кадров : 31,250 кадров/сек (1536 spf)
Метод сжатия : С потерями
Размер потока : 336 Мбайт (5%)
Заголовок : Авторский (одноголосый закадровый) Сербин
Язык : Russian
Default : Нет
Forced : Нет
Аудио #5
Идентификатор : 6
Формат : AC-3
Формат/Информация : Audio Coding 3
Расширение режима : CM (complete main)
Параметр Endianness формата : Big
Идентификатор кодека : A_AC3
Продолжительность : 1 ч. 44 м.
Вид битрейта : Постоянный
Битрейт : 448 Кбит/сек
Каналы : 6 каналов
Расположение каналов : Front: L C R, Side: L R, LFE
Частота : 48,0 КГц
Частота кадров : 31,250 кадров/сек (1536 spf)
Метод сжатия : С потерями
Размер потока : 336 Мбайт (5%)
Язык : English
Default : Нет
Forced : Нет
Текст #1
Идентификатор : 7
Формат : UTF-8
Идентификатор кодека : S_TEXT/UTF8
Идентификатор кодека/Информация : UTF-8 Plain Text
Заголовок : 1 канал
Язык : Russian
Default : Нет
Forced : Нет
Текст #2
Идентификатор : 8
Формат : UTF-8
Идентификатор кодека : S_TEXT/UTF8
Идентификатор кодека/Информация : UTF-8 Plain Text
Язык : Russian
Default : Нет
Forced : Нет
Текст #3
Идентификатор : 9
Формат : UTF-8
Идентификатор кодека : S_TEXT/UTF8
Идентификатор кодека/Информация : UTF-8 Plain Text
Заголовок : надписи
Язык : Russian
Default : Нет
Forced : Нет
Текст #4
Идентификатор : 10
Формат : UTF-8
Идентификатор кодека : S_TEXT/UTF8
Идентификатор кодека/Информация : UTF-8 Plain Text
Язык : English
Default : Нет
Forced : Нет

Скриншоты

Торрент перезалит 22.08.16 - Из видеоряда удалены все послеркламные вставки с названием фильма. Добавлены дорожки с двухголосой и авторскими озвучками, оригинальная дорожка субтитры, русские и английские.
[iv-torrents.ru].t60853.torrent
Торрент: Зарегистрирован [ 2016-08-22 19:36 ] · B5C20A0C3DF924D0DCAA5CEA1CB331331C86927A

Скачать .torrent

Скачать

35 KB

Статус: проверено
Скачан: 0 раз
Размер: 6.83 GB
terms.php
Похожие темы


Показать сообщения:    

Текущее время: 15-Дек 10:25

Часовой пояс: UTC ± 0


Вы не можете начинать темы
Вы не можете отвечать на сообщения
Вы не можете редактировать свои сообщения
Вы не можете удалять свои сообщения
Вы не можете голосовать в опросах
Вы не можете прикреплять файлы к сообщениям
Вы можете скачивать файлы

!ВНИМАНИЕ!
Сайт не предоставляет электронные версии произведений, а занимается лишь коллекционированием и каталогизацией ссылок, присылаемых и публикуемых на форуме нашими читателями. Если вы являетесь правообладателем какого-либо представленного материала и не желаете, чтобы ссылка на него находилась в нашем каталоге, свяжитесь с нами, и мы незамедлительно удалим ее. Файлы для обмена на трекере предоставлены пользователями сайта, и администрация не несет ответственности за их содержание. Просьба не заливать файлы, защищенные авторскими правами, а также файлы нелегального содержания!