Важное объявление!
У Нас Все раздачи мультитрекерные, при нуле пиров в релизах, можете смело вставать на закачку!
Статистика раздачи
Размер:     |    Зарегистрирован:     |    Скачан:     |   
Нет
 
     
 
 
Автор Сообщение

HUNTER

Стаж:
5 лет 1 месяц
Сообщений:
68426

Репутация: 101

[+] [-]
Вне форума [Профиль] [ЛС]

Дьявольский мед / Мёд дьявола / Il miele del diavolo / Devil's Honey / Divine Obsession / La miel del diablo
Страна: Испания, Италия
Студия: Selvaggia Film
Жанр: триллер
Год выпуска: 1986
Продолжительность: 01:19:21
Перевод: Авторский (одноголосый закадровый) Штейн
Cубтитры: нет
Оригинальная аудиодорожка: итальянский
Режиссер: Лючио Фульчи / Lucio Fulci
В ролях: Бретт Халси, Коррин Клери, Стефано Мадия, Бланка Марсилла
Описание: Джессика безумно влюблена в саксофониста Джонни. Вместе они предаются сексуальным играм, причем Джонни порой неоправданно жесток по отношению к Джессике. Девушка переносит страшные мучения, как физические, так и моральные, но все равно продолжает встречаться с Джонни. Однажды во время таких жестоких игр, Джонни падает и ударяется головой о камень. Этим же вечером во время сессии звукозаписи Джонни теряет сознание и оказывается в госпитале. Его лечащим хирургом оказывается недовольный семейной жизнью доктор Уэндалл Симпсон. Его больше не удовлетворяет собственная жена Кэрол, поэтому он посещает проституток, где наслаждается, унижая и истязая их. Вскоре Кэрол узнает о похождениях мужа и собирается развестись с ним. Потрясенный этим известием, доктор Симпсон оперирует Джонни, но не удачно, и парень умирает на операционном столе. Джессика приходит в бешенство, когда узнает об этом. Она обвиняет в смерти доктора Симпсона, посылает ему в офис угрозы, а потом и вовсе похищает его…
Этот фильм есть интересное исследование возрастающей опасности садомазохистских отношений, слегка окрашенных необузданной похотью, страстью и любовью. Хотя первые тридцать минут фильма довольно глупы и дешево сделаны, вторая часть картины удивляет своей серьезностью и мрачным тоном. По мере течения фильма мы все больше погружаемся в по-настоящему закрученные отношения, пока не понимаем, что единственным выходом из ситуации является абсолютный нигилизм и разрушение. Фильм поставлен по тому же сюжету, что и картина «Девять с половиной недель» (1986) Эдриана Лайна с Ким Бесинджер и Микки Рурком в главных ролях.
Доп. информация: Диск из собственной коллекции.
Бонусы: Меню отсутствует.
Сэмпл: http://sendfile.su/1137835
Тип релиза: DVD5 (Custom)
Контейнер: DVD-Video
Видео: PAL 16:9 (720x576) VBR Auto Pan&Scan
Аудио: Russian (Dolby AC3, 192 Kbps, 2 ch)
Аудио 2: English (Dolby AC3, 192 Kbps, 2 ch)
Аудио 3: Italiano (Dolby AC3, 192 Kbps, 2 ch)

DVDInfo

Size: 4.23 Gb ( 4 431 254 KBytes ) - DVD-5
Enabled regions: 1, 2, 3, 4, 5, 6, 8
VTS_01 :
Play Length: 01:19:21
Video: PAL 16:9 (720x576) VBR, Auto Pan&Scan
Audio:
Russian (Dolby AC3, 2 ch)
English (Dolby AC3, 2 ch)
Italiano (Dolby AC3, 2 ch)
Menu Video:
PAL 16:9 (720x576) VBR
Auto Pan&Scan
Menu English Language Unit :
Root Menu

MediaInfo

General
Complete name : K:\Il miele del diavolo_1986\VIDEO_TS\VTS_01_1.VOB
Format : MPEG-PS
File size : 1 024 MiB
Duration : 18mn 44s
Overall bit rate mode : Variable
Overall bit rate : 7 639 Kbps
Video
ID : 224 (0xE0)
Format : MPEG Video
Format version : Version 2
Format profile : Main@Main
Format settings, BVOP : Yes
Format settings, Matrix : Default
Duration : 18mn 44s
Bit rate mode : Variable
Bit rate : 6 911 Kbps
Maximum bit rate : 9 416 Kbps
Width : 720 pixels
Height : 576 pixels
Display aspect ratio : 16:9
Frame rate : 25.000 fps
Standard : PAL
Color space : YUV
Chroma subsampling : 4:2:0
Bit depth : 8 bits
Scan type : Progressive
Compression mode : Lossy
Bits/(Pixel*Frame) : 0.667
Stream size : 926 MiB (90%)
Audio #1
ID : 189 (0xBD)-128 (0x80)
Format : AC-3
Format/Info : Audio Coding 3
Mode extension : CM (complete main)
Format settings, Endianness : Big
Muxing mode : DVD-Video
Duration : 18mn 44s
Bit rate mode : Constant
Bit rate : 192 Kbps
Channel(s) : 2 channels
Channel positions : Front: L R
Sampling rate : 48.0 KHz
Bit depth : 16 bits
Compression mode : Lossy
Stream size : 25.7 MiB (3%)
Audio #2
ID : 189 (0xBD)-129 (0x81)
Format : AC-3
Format/Info : Audio Coding 3
Mode extension : CM (complete main)
Format settings, Endianness : Big
Muxing mode : DVD-Video
Duration : 18mn 44s
Bit rate mode : Constant
Bit rate : 192 Kbps
Channel(s) : 2 channels
Channel positions : Front: L R
Sampling rate : 48.0 KHz
Bit depth : 16 bits
Compression mode : Lossy
Stream size : 25.7 MiB (3%)
Audio #3
ID : 189 (0xBD)-130 (0x82)
Format : AC-3
Format/Info : Audio Coding 3
Mode extension : CM (complete main)
Format settings, Endianness : Big
Muxing mode : DVD-Video
Duration : 18mn 44s
Bit rate mode : Constant
Bit rate : 192 Kbps
Channel(s) : 2 channels
Channel positions : Front: L R
Sampling rate : 48.0 KHz
Bit depth : 16 bits
Compression mode : Lossy
Stream size : 25.7 MiB (3%)
Menu

Постеры


_________________
Показать сообщения:    

Текущее время: Сегодня 23:44

Часовой пояс: GMT



Вы не можете начинать темы
Вы не можете отвечать на сообщения
Вы не можете редактировать свои сообщения
Вы не можете удалять свои сообщения
Вы не можете голосовать в опросах
Вы не можете прикреплять файлы к сообщениям
Вы не можете скачивать файлы