Ивановский Торрент трекер
Яндекс.Погода
 

[Цитировать]
HUNTER

Дух Сент-Луиса / The Spirit of St. Louis
Страна: США
Жанр: драма, приключения, биография, история
Год выпуска: 1957
Продолжительность: 02:15:09
Перевод 1: Авторский (одноголосый закадровый) - Юрий Живов
Перевод 2: Авторский (одноголосый закадровый) - Григорий Либергал
Cубтитры: английские
Оригинальная аудиодорожка: английский
Режиссер: Билли Уайлдер / Billy Wilder
В ролях: Джеймс Стюарт, Мюррэй Хэмилтон, Патриция Смит, Бартлетт Робинсон, Марк Коннелли, Артур Спэйс, Чарльз Уоттс, Эрвилль Алдерсон, Дэвид Элперт
Описание: Работая авиапочтальоном, отважный пилот мечтал в одиночку перелететь через Атлантику. До него этого не делал никто. Для осуществления своей мечты он ищет спонсоров, и после больших трудов находит сочувствующую группу в Сент-Луисе, штат Миссури. По его заказу для полета строят специальный самолет, получивший название «Дух Сент-Луиса». В день вылета из Нью-Йорка Линдберг вынужден был долго ждать, пока кончится дождь…
Доп. информация:


За перевод Живова спасибо -Iskander-
За перевод Либергала спасибо Toha88888888
Сэмпл: http://sendfile.su/1051565
Тип релиза: WEB-DL 720p
Контейнер: MKV
Видео: AVC, 1280x500, L3.1, 23.976fps, 3929kbps, 0.256bit/pixel
Аудио 1: Russian: AC3, 48000Hz, 2ch, 192kbps - Живов
Аудио 2: Russian: AC3, 48000Hz, 2ch, 192kbps - Либергал
Аудио 3: English: AC3, 48000Hz, 6ch, 384kbps
Формат субтитров: softsub (SRT)

MediaInfo

Общее
Уникальный идентификатор : 191397842080632582224613502180221118810 (0x8FFDE22F609150F89332E39C9041E95A)
Полное имя : T:\The Spirit of St.Louis (WEB-DL 720p).mkv
Формат : Matroska
Версия формата : Version 4 / Version 2
Размер файла : 4,52 Гбайт
Продолжительность : 2 ч. 15 м.
Общий поток : 4792 Кбит/сек
Название фильма : The Spirit of St. Louis for rutracker.org
Дата кодирования : UTC 2014-11-22 07:02:12
Программа кодирования : mkvmerge v6.9.1 ('Blue Panther') 64bit built on Apr 18 2014 18:23:38
Библиотека кодирования : libebml v1.3.0 + libmatroska v1.4.1
Видео
Идентификатор : 1
Формат : AVC
Формат/Информация : Advanced Video Codec
Профиль формата : Main@L3.1
Параметр CABAC формата : Нет
Параметр ReFrames формата : 2 кадра
Идентификатор кодека : V_MPEG4/ISO/AVC
Продолжительность : 2 ч. 15 м.
Битрейт : 3929 Кбит/сек
Ширина : 1280 пикселей
Высота : 500 пикселей
Соотношение сторон : 2,560
Режим частоты кадров : Постоянный
Частота кадров : 23,976 кадра/сек
Цветовое пространство : YUV
Субдискретизация насыщенности : 4:2:0
Битовая глубина : 8 бит
Тип развёртки : Прогрессивная
Бит/(Пиксели*Кадры) : 0.256
Размер потока : 3,71 Гбайт (82%)
Язык : English
Default : Да
Forced : Нет
Основные цвета : BT.709
Характеристики трансфера : BT.709
Коэффициенты матрицы : BT.709
Аудио #1
Идентификатор : 2
Формат : AC-3
Формат/Информация : Audio Coding 3
Расширение режима : CM (complete main)
Параметр Endianness формата : Big
Идентификатор кодека : A_AC3
Продолжительность : 2 ч. 15 м.
Вид битрейта : Постоянный
Битрейт : 192 Кбит/сек
Каналы : 2 канала
Расположение каналов : Front: L R
Частота : 48,0 КГц
Битовая глубина : 16 бит
Метод сжатия : С потерями
Размер потока : 186 Мбайт (4%)
Заголовок : Живов
Язык : Russian
Default : Да
Forced : Нет
Аудио #2
Идентификатор : 3
Формат : AC-3
Формат/Информация : Audio Coding 3
Расширение режима : CM (complete main)
Параметр Endianness формата : Big
Идентификатор кодека : A_AC3
Продолжительность : 2 ч. 15 м.
Вид битрейта : Постоянный
Битрейт : 192 Кбит/сек
Каналы : 2 канала
Расположение каналов : Front: L R
Частота : 48,0 КГц
Битовая глубина : 16 бит
Метод сжатия : С потерями
Размер потока : 186 Мбайт (4%)
Заголовок : Либергал
Язык : Russian
Default : Нет
Forced : Нет
Аудио #3
Идентификатор : 4
Формат : AC-3
Формат/Информация : Audio Coding 3
Расширение режима : CM (complete main)
Параметр Endianness формата : Big
Идентификатор кодека : A_AC3
Продолжительность : 2 ч. 15 м.
Вид битрейта : Постоянный
Битрейт : 384 Кбит/сек
Каналы : 6 каналов
Расположение каналов : Front: L C R, Side: L R, LFE
Частота : 48,0 КГц
Битовая глубина : 16 бит
Метод сжатия : С потерями
Размер потока : 371 Мбайт (8%)
Язык : English
Default : Нет
Forced : Нет
Текст
Идентификатор : 5
Формат : UTF-8
Идентификатор кодека : S_TEXT/UTF8
Идентификатор кодека/Информация : UTF-8 Plain Text
Язык : English
Default : Нет
Forced : Нет
Меню
00:00:00.000 : en:Credits And Foreward.
00:02:08.000 : en:Restless Night.
00:06:09.000 : en:Bailout Enroute To Chicago.
00:11:25.000 : en:Death From Planes And Belts.
00:14:13.000 : en:Long Distance.
00:17:44.000 : en:Spirit Of St. Louis.
00:23:10.000 : en:Wrong Card, Wrong Pilot.
00:27:49.000 : en:Ryan Airlines Inc.
00:31:36.000 : en:Airplane In The Making.
00:37:18.000 : en:Test Flight, Graduation Pictures.
00:41:14.000 : en:Got To Be Tired Now.
00:45:45.000 : en:Not Sleeping Like A Baby.
00:47:31.000 : en:Father Hussman.
00:51:48.000 : en:Final Checks.
00:54:21.000 : en:You Needed The Mirror.
00:57:48.000 : en:Onto The Runway.
01:03:57.000 : en:Departures.
01:10:20.000 : en:Lindy Is Off!
01:12:03.000 : en:A Passenger.
01:15:00.000 : en:Restful Memories.
01:17:36.000 : en:Nova Scotia.
01:19:53.000 : en:First Solo Flight.
01:25:57.000 : en:St. John's.
01:30:11.000 : en:Barnstorming With Bud.
01:37:07.000 : en:Calculations In The Dark.
01:39:48.000 : en:Warm Welcome As Brooks Field.
01:43:12.000 : en:Ice Danger.
01:48:27.000 : en:Regaining Course, Fighting Sleep.
01:52:43.000 : en:Seeing The Light.
01:54:29.000 : en:Asking Directions,
01:56:41.000 : en:Ireland.
02:00:56.000 : en:Mahoney's Lucky Charm.
02:03:17.000 : en:Cherbourg, Engine Out.
02:05:33.000 : en:Nearing Paris.
02:07:19.000 : en:Lights Of Lebourget.
02:09:17.000 : en:Landing Prayer.
02:11:17.000 : en:The Crowd's Hero.

Скриншоты



Показать сообщения:    

Текущее время: 12-Дек 10:37

Часовой пояс: UTC ± 0


Вы не можете начинать темы
Вы не можете отвечать на сообщения
Вы не можете редактировать свои сообщения
Вы не можете удалять свои сообщения
Вы не можете голосовать в опросах
Вы не можете прикреплять файлы к сообщениям
Вы не можете скачивать файлы

!ВНИМАНИЕ!
Сайт не предоставляет электронные версии произведений, а занимается лишь коллекционированием и каталогизацией ссылок, присылаемых и публикуемых на форуме нашими читателями. Если вы являетесь правообладателем какого-либо представленного материала и не желаете, чтобы ссылка на него находилась в нашем каталоге, свяжитесь с нами, и мы незамедлительно удалим ее. Файлы для обмена на трекере предоставлены пользователями сайта, и администрация не несет ответственности за их содержание. Просьба не заливать файлы, защищенные авторскими правами, а также файлы нелегального содержания!