Важное объявление!
У Нас Все раздачи мультитрекерные, при нуле пиров в релизах, можете смело вставать на закачку!
 
Автор Сообщение

HUNTER

Стаж:
4 года 8 месяцев
Сообщений:
61998

Репутация: 101

[+] [-]
Вне форума [Профиль] [ЛС]

Дух живого леса / Espiritu del bosque-
Страна: Испания
Жанр: мультфильм, семейный
Год выпуска: 2008
Продолжительность: 01:14:37
Перевод: Профессиональный (полное дублирование)
Субтитры: Нет-Режиссер: Дэвид Рубин / David Rubin-Роли озвучивали: Мария Аданес (Linda, озвучка), Шон Эстин (Furi, озвучка), Анжелика Хьюстон (Mrs. D'Abondo, озвучка), Хуан Ибаньес Перез (Hoho, озвучка), Луис Мерло (Cebolo, озвучка), Дамиан Молла Херман (Huhu, озвучка), Рон Перлман (Oak, озвучка), Джованни Рибизи (Cebolo, озвучка)-Роли дублировали: Ирина Киреева (Linda), Дмитрий Курта (Furi), Александр Гаврилин, Александр Груздев, Дмитрий Филимонов, Никита Прозоровский, Ольга Кузнецова, Лариса Брохман (Mrs. D'Abondo), Диомид Виноградов (Hoho), Артем Карапетян, Михаил Гульдан (Huhu), Алексей Борзунов (Oak)-Описание: Влиятельный бизнесмен собирается строить автомагистраль, а злобная миссис Д’Абондо только и ждет повода, чтобы избавиться от Леса. Деревьям Живого леса и старому Дубу грозит опасность, и те советуют животным, обитающим в Лесу, спасаться бегством.
Однако кроты Фури и Линда, а также мышонок Пьорно не собираются сдаваться. К ним присоединяется маленький пугливый крот Себоло, недавно переехавший из города в Лес. На помощь друзьям также приходит клан диких кошек под предводительством храброго Тигра. Даже назойливые мухи Хи-Хи и Хо-Хо решают помочь им.
Когда друзья обнаруживают, что миссис Д’Абондо боится привидений, Фури в голову приходит отличная идея... пробудить Дух Живого Леса.
-Рейтинг:

MPAA: - Рекомендуется присутствие родителей-Бюджет: $20 000 000
Мировая премьера: 12 сентября 2008
Релиз на DVD: 31 марта 2011, «Новый Диск»-Релиз: -Семпл-Качество: DVDRip
Формат: AVI
Видео: 720x400 (1.80:1), 25 fps, XviD build 65 ~2335 kbps avg, 0.32 bit/pixel
Аудио: 48 kHz, AC3 Dolby Digital, 3/2 (L,C,R,l,r) + LFE ch, ~448 kbps
Субтитры: Отсутствуют
-

MI

Format : AVIFormat/Info : Audio Video InterleaveFile size : 1.46 GiBDuration : 1h 14mnOverall bit rate : 2 794 KbpsWriting application : VirtualDubMod 1.5.10.3 | www.virtualdub-fr.org || (build 2550/release)Writing library : VirtualDubMod build 2550/release
VideoID : 0Format : MPEG-4 VisualFormat profile : Advanced Simple@L5Format settings, BVOP : 2Format settings, QPel : NoFormat settings, GMC : No warppointsFormat settings, Matrix : CustomCodec ID : XVIDCodec ID/Hint : XviDDuration : 1h 14mnBit rate : 2 336 KbpsWidth : 720 pixelsHeight : 400 pixelsDisplay aspect ratio : 16:9Frame rate : 25.000 fpsColor space : YUVChroma subsampling : 4:2:0Bit depth : 8 bitsScan type : ProgressiveCompression mode : LossyBits/(Pixel*Frame) : 0.324Stream size : 1.22 GiB (84%)Writing library : XviD 65
AudioID : 1Format : AC-3Format/Info : Audio Coding 3Mode extension : CM (complete main)Format settings, Endianness : BigCodec ID : 2000Duration : 1h 14mnBit rate mode : ConstantBit rate : 448 KbpsChannel(s) : 6 channelsChannel positions : Front: L C R, Side: L R, LFESampling rate : 48.0 KHzBit depth : 16 bitsCompression mode : LossyStream size : 239 MiB (16%)Alignment : Split accross interleavesInterleave, duration : 40 ms (1.00 video frame)Interleave, preload duration : 500 ms

_________________
Показать сообщения:    

Текущее время: Сегодня 23:39

Часовой пояс: GMT



Вы не можете начинать темы
Вы не можете отвечать на сообщения
Вы не можете редактировать свои сообщения
Вы не можете удалять свои сообщения
Вы не можете голосовать в опросах
Вы не можете прикреплять файлы к сообщениям
Вы не можете скачивать файлы
Наши партнеры: интернет магазин Ивановского трикотажа textilla.ru