Дух живого леса / Espiritu del bosque (Дэвид Рубин / David Rubin, Хуан Пине / Juanе C. Pena) [2008, Мультфильм, комедия, приключение, DVD5] Dub + Original + Rus Sub :: Ивановский Торрент трекер
Важное объявление!
У Нас Все раздачи мультитрекерные, при нуле пиров в релизах, можете смело вставать на закачку!
Статистика раздачи
Размер:     |    Зарегистрирован:     |    Скачан:     |   
Нет
 
     
 
 
Автор Сообщение

HUNTER

Стаж:
4 года 11 месяцев
Сообщений:
66090

Репутация: 101

[+] [-]
Вне форума [Профиль] [ЛС]

Дух живого леса / Espiritu del bosque
Страна: Испания
Жанр: Мультфильм, комедия, приключение
Продолжительность: 01:14:36
Год выпуска: 2008
Перевод: Профессиональный (дублированный) (Сонатек по заказу телеэкспорт в 2010 г.)
Русские субтитры: есть
Режиссёр: Дэвид Рубин / David Rubin, Хуан Пине / Juanе C. Pena
Роли дублировали: Дмитрий Курта, Ирина Киреева, Никита Прозаровский, Диамин Виноградов, Лариса Брохма, Александр Гаврилин, Дмитрий Филимонов, Алексей Борзунов, Ольга Кузнецова, Ольга Шорохова, Михаил Гульда, Кристина Степаненко, Артём Херапетян и Александр Груздь
Описание: Влиятельный бизнесмен собирается строить автомагистраль, а злобная миссис Д’Абондо только и ждет повода, чтобы избавиться от Леса. Деревьям Живого леса и старому Дубу грозит опасность, и те советуют животным, обитающим в Лесу, спасаться бегством. Однако кроты Фури и Линда, а также мышонок Пьорно не собираются сдаваться. К ним присоединяется маленький пугливый крот Себоло, недавно переехавший из города в Лес. На помощь друзьям также приходит клан диких кошек под предводительством храброго Тигра. Даже назойливые мухи Хи-Хи и Хо-Хо решают помочь им. Когда друзья обнаруживают, что миссис Д’Абондо боится привидений, Фури в голову приходит отличная идея… пробудить Дух Живого Леса.
Доп. материалы:
1) Фильм о фильме
2) Оригинальный ролик
Семпл: http://www.sendspace.com/file/j4nrm7
Качество: DVD5
Формат: DVD-video
Видео: MPEG Video; 3486 Кбит/сек; 720х576 (16:9); 25,000 кадров/сек; PAL
Аудио: AC-3; 448 Кбит/сек; 6 каналов; 48,0 КГц; Русский
Аудио 2: AC-3; 448 Кбит/сек; 6 каналов; 48,0 КГц; Испанский
Субтитры: Русские, встроенные в испанскую дорожку (Отключаемые)

DVDInfo

Title: Дух живого леса (DVD 5) [rutracker.org]Size: 3.62 Gb ( 3 791 876,00 KBytes ) - DVD-5Enabled regions: 1, 2, 3, 4, 5, 6, 7, 8
VTS_01 : Play Length: 00:00:10 Video: PAL 16:9 (720x576) VBR, Auto Letterboxed
VTS_02 : Play Length: 00:00:22 Video: PAL 16:9 (720x576) VBR, Auto Letterboxed Audio: Russian (Dolby AC3, 6 ch)
VTS_03 : Play Length: 01:14:37 Video: PAL 16:9 (720x576) VBR, Auto Letterboxed Audio: Russian (Dolby AC3, 6 ch) Espanol (Dolby AC3, 6 ch) Subtitles: Russian
VTS_04 : Play Length: 00:01:35 Video: PAL 4:3 (720x576) VBR Audio: Espanol (Dolby AC3, 2 ch)
VTS_05 : Play Length: 00:02:05 Video: PAL 4:3 (720x576) VBR Audio: Russian (Dolby AC3, 6 ch)
VTS_06 : Play Length: 00:01:42 Video: PAL 4:3 (720x576) VBR Audio: Russian (Dolby AC3, 6 ch)
VTS_07 : Play Length: 00:01:18 Video: PAL 16:9 (720x576) VBR, Auto Letterboxed Audio: Russian (Dolby AC3, 2 ch)
VTS_08 : Play Length: 00:04:25 Video: PAL 4:3 (720x576) VBR Audio: Russian (Dolby AC3, 2 ch)
VTS_09 : Play Length: 00:09:45 Video: PAL 4:3 (720x576) VBR Audio: Russian (Dolby AC3, 2 ch)
VTS_10 : Play Length: 00:04:21 Video: PAL 4:3 (720x576) VBR Audio: Russian (Dolby AC3, 2 ch)

Скриншоты меню

Скриншоты

MI

Общее
Полное имя : E:\закачки\Дух живого леса (DVD 5) [rutracker.org]\VIDEO_TS\VTS_03_2.VOB
Формат : MPEG-PS
Размер файла : 1024 Мбайт
Продолжительность : 32 м.
Общий поток : 4471 Кбит/сек
Видео
Идентификатор : 224 (0xE0)
Формат : MPEG Video
Версия формата : Version 2
Профиль формата : Main@Main
Параметр BVOP формата : Да
Параметр матрицы формата : Выборочная
Параметр GOP формата : M=3, N=12
Продолжительность : 32 м.
Битрейт : 3486 Кбит/сек
Максимальный битрейт : 6500 Кбит/сек
Ширина : 720 пикселей
Высота : 576 пикселей
Соотношение сторон : 16:9
Частота кадров : 25,000 кадров/сек
Стандарт вещания : PAL
Цветовое пространство : YUV
Субдискретизация насыщенности : 4:2:0
Битовая глубина : 8 бит
Тип развёртки : Чересстрочная
Порядок развёртки : Верхнее поле первое
Метод сжатия : С потерями
Бит/(Пиксели*Кадры) : 0.336
Временной код первого кадра : 00:34:09:17
Оригинал временного кода : Group of pictures header
Размер потока : 798 Мбайт (78%)
Аудио #1
Идентификатор : 189 (0xBD)-128 (0x80)
Формат : AC-3
Формат/Информация : Audio Coding 3
Расширение режима : CM (complete main)
Параметр Endianness формата : Big
Режим смешивания : DVD-Video
Продолжительность : 32 м.
Вид битрейта : Постоянный
Битрейт : 448 Кбит/сек
Каналы : 6 каналов
Расположение каналов : Front: L C R, Side: L R, LFE
Частота : 48,0 КГц
Битовая глубина : 16 бит
Метод сжатия : С потерями
Задержка видео : -744 мс.
Размер потока : 103 Мбайт (10%)
Аудио #2
Идентификатор : 189 (0xBD)-129 (0x81)
Формат : AC-3
Формат/Информация : Audio Coding 3
Расширение режима : CM (complete main)
Параметр Endianness формата : Big
Режим смешивания : DVD-Video
Продолжительность : 32 м.
Вид битрейта : Постоянный
Битрейт : 448 Кбит/сек
Каналы : 6 каналов
Расположение каналов : Front: L C R, Side: L R, LFE
Частота : 48,0 КГц
Битовая глубина : 16 бит
Метод сжатия : С потерями
Задержка видео : -744 мс.
Размер потока : 103 Мбайт (10%)
Текст
Идентификатор : 189 (0xBD)-32 (0x20)
Формат : RLE
Формат/Информация : Run-length encoding
Режим смешивания : DVD-Video
Меню

_________________
Показать сообщения:    

Текущее время: Сегодня 20:57

Часовой пояс: GMT



Вы не можете начинать темы
Вы не можете отвечать на сообщения
Вы не можете редактировать свои сообщения
Вы не можете удалять свои сообщения
Вы не можете голосовать в опросах
Вы не можете прикреплять файлы к сообщениям
Вы не можете скачивать файлы