Важное объявление!
У Нас Все раздачи мультитрекерные, при нуле пиров в релизах, можете смело вставать на закачку!
Статистика раздачи
Размер:     |    Зарегистрирован:     |    Скачан:     |   
Нет
 
     
 
 
Автор Сообщение

Vanya_o3

[Профиль] [ЛС]

Дрянные девчонки 2 / Mean Girls 2«Баунти возвращаются!»-
Год выпуска: 2011
Страна: США
Жанр: комедия
Продолжительность: 01:36:57
Перевод 1: Профессиональный (многоголосый, закадровый) |iTunes Russia|
Перевод 2: Профессиональный (двухголосый, закадровый) |НТВ+|
Оригинальная аудиодорожка: английская
Субтитры: русские (notabenoid), английские |*srt|-Режиссер: Мелани Мейрон / Melanie Mayron-В ролях: Меган Йётте Мартин, Донн Ламкин, Линден Эшби, Дэн Коулмэн, Клер Холт, Патрик Джонсон, Колин Деннард, Майра Уолш, Николь Гэйл Андерсон, Бетани Энн Линд-Описание: В этот раз речь пойдет об Эбби — богатой, но не популярной в школе и Джо — не богатой, но смелой. После очередной пакости Мэнди — «пластиковой» королевы Джо подвозит Эбби домой и сталкивается там с отцом Эбби, который предлагает оплатить учебы девушки за дружбу с его дочкой. «Кому от этого будет плохо?» — подумала Джо и тут понеслась… Пакости, сплетни, интриги и многое другое, как у первых дрянных девчонок и даже гораздо лучше!- -Сэмпл: http://multi-up.com/862336-Качество: WEBDLRip [исходник: iTunes WEB-DL 720p | ]
Формат: AVI
Видео: 720x400 (1.80:1), 23.976 fps, XviD build 65 ~1758 kbps avg, 0.25 bit/pixel
Аудио 1: 48 kHz, AC3 Dolby Digital, 3/2 (L,C,R,l,r) + LFE ch, ~384.00 kbps avg |MVO, iTunes Russia|
Аудио 2: 48 KHz, AC3 Dolby Digital, 2/0 (L,R), ~ 192.00 kbps avg |DVO, НТВ+|-

Media Info

Формат : AVI
Формат/Информация : Audio Video Interleave
Размер файла : 1,46 Гбайт
Продолжительность : 1 ч. 36 м.
Общий поток : 2151 Кбит/сек
Программа кодирования : VirtualDubMod 1.5.10.3 | www.virtualdub-fr.org || (build 2550/release)
Библиотека кодирования : VirtualDubMod build 2550/release
Видео
Идентификатор : 0
Формат : MPEG-4 Visual
Профиль формата : Advanced Simple@L5
Параметр BVOP формата : 1
Параметр QPel формата : Нет
Параметр GMC формата : Без точки перехода
Параметр матрицы формата : Выборочная
Идентификатор кодека : XVID
Идентификатор кодека/Подсказка : XviD
Продолжительность : 1 ч. 36 м.
Битрейт : 1759 Кбит/сек
Ширина : 720 пикселей
Высота : 400 пикселей
Соотношение сторон : 16:9
Частота кадров : 23,976 кадра/сек
Цветовое пространство : YUV
Субдискретизация насыщенности : 4:2:0
Битовая глубина : 8 бит
Тип развёртки : Прогрессивная
Метод сжатия : С потерями
Бит/(Пиксели*Кадры) : 0.255
Размер потока : 1,19 Гбайт (82%)
Библиотека кодирования : XviD 65
Аудио
Идентификатор : 1
Формат : AC-3
Формат/Информация : Audio Coding 3
Расширение режима : CM (complete main)
Параметр Endianness формата : Big
Идентификатор кодека : 2000
Продолжительность : 1 ч. 36 м.
Вид битрейта : Постоянный
Битрейт : 384 Кбит/сек
Каналы : 6 каналов
Расположение каналов : Front: L C R, Side: L R, LFE
Частота : 48,0 КГц
Битовая глубина : 16 бит
Метод сжатия : С потерями
Размер потока : 266 Мбайт (18%)
Выравнивание : Разделение по промежуткам
Продолжительность промежутка : 42 мс. (1,00 видеокадр)
Время предзагрузки промежутка : 500 мс.
-

Скриншоты



 
Показать сообщения:    

Текущее время: Сегодня 00:51

Часовой пояс: GMT



Вы не можете начинать темы
Вы не можете отвечать на сообщения
Вы не можете редактировать свои сообщения
Вы не можете удалять свои сообщения
Вы не можете голосовать в опросах
Вы не можете прикреплять файлы к сообщениям
Вы не можете скачивать файлы