Важное объявление!
У Нас Все раздачи мультитрекерные, при нуле пиров в релизах, можете смело вставать на закачку!
Статистика раздачи
Размер:     |    Зарегистрирован:     |    Скачан:     |   
Нет
 
     
 
 
Автор Сообщение

HUNTER

Стаж:
5 лет
Сообщений:
67979

Репутация: 101

[+] [-]
Вне форума [Профиль] [ЛС]

Друзья / Friends
«Everybody needs Friends!»
Год выпуска: 1994-1995 гг.
Страна: США
Жанр: Комедийный телевизионный сериал
Продолжительность: ~ 00:22:00 на серию
Перевод: Профессиональный (многоголосый, закадровый) РТР
Субтитры: Отсутствуют

Режиссер: David Crane, Marta Kauffman
В ролях: Дженнифер Энистон, Кортни Кокс, Лиза Кудроу, Мэтт ЛеБлан, Мэттью Перри, Дэвид Швиммер, Джеймс Майкл Тайлер, Эллиотт Гулд, Мэгги Вилер, Кристина Пиклз и др.

Описание: Д·Р·У·З·Ь·Я (F·r·i·e·n·d·s) — популярный американский комедийный телевизионный сериал, повествующий о жизни шестерых лучших друзей. Веселые и обаятельные герои сериала влюбляются, ищут работу, ссорятся, женятся, разводятся...Невероятно живые и интересные персонажи, у каждого свой неповторимый характер! Сериал стал одним из наиболее заметных телевизионных проектов 1990-х годов и получил множество наград, в том числе премии «Эмми».
Рэйчел, Моника, Фиби, Джоуи, Чендлер и Росс - эти имена знают телезрители всего мира! Ни один комедийный сериал не пользовался такой популярностью. Рейтинги "Друзей" достигали порой космических высот. В 1994 году, когда "Друзей" начали показывать на американском канале NBC, ни продюсеры, ни тогда малоизвестные молодые актеры не могли даже представить себе, что их герои станут любимцами миллионов зрителей, а они сами - мегазвездами !
Качество: HDTVRip
Формат: AVI
Видео кодек: XviD
Аудио кодек: AC3
Видео: 720x400 (1.80:1), 23.976 fps, XviD MPEG-4 ~2174 kbps avg, 0.32 bit/pixel
Аудио Russian №1: 48 kHz, AC3 Dolby Digital, 2/0 (L,R) ch, ~192 kbps
Аудио English №2 : 48 kHz, AC3 Dolby Digital, 2/0 (L,R) ch, ~192 kbps
Субтитры: отсутствуют

MediaInfo

General
Complete name : E:\Friends - Season 1\Friends.s01e01.hdtvrip.eng.rus.avi
Format : AVI
Format/Info : Audio Video Interleave
File size : 400 MiB
Duration : 21mn 45s
Overall bit rate : 2 573 Kbps
Writing application : VirtualDubMod 1.5.10.2 (build 2540/release)
Writing library : VirtualDubMod build 2540/release
Video
ID : 0
Format : MPEG-4 Visual
Format profile : Advanced Simple@L5
Format settings, BVOP : Yes
Format settings, QPel : No
Format settings, GMC : No warppoints
Format settings, Matrix : Default (MPEG)
Muxing mode : Packed bitstream
Codec ID : XVID
Codec ID/Hint : XviD
Duration : 21mn 45s
Bit rate : 2 175 Kbps
Width : 720 pixels
Height : 400 pixels
Display aspect ratio : 16:9
Frame rate : 25 fps
Resolution : 8 bits
Colorimetry : 4:2:0
Scan type : Progressive
Bits/(Pixel*Frame) : 0.315
Stream size : 338 MiB (85%)
Writing library : XviD 1.2.1 (UTC 2008-12-04)
Audio #1
ID : 1
Format : AC-3
Format/Info : Audio Coding 3
Codec ID : 2000
Duration : 21mn 45s
Bit rate mode : Constant
Bit rate : 192 Kbps
Channel(s) : 2 channels
Channel positions : L R
Sampling rate : 48.0 KHz
Stream size : 29.9 MiB (7%)
Alignment : Split accross interleaves
Interleave, duration : 42 ms (1.00 video frame)
Interleave, preload duration : 500 ms
Audio #2
ID : 2
Format : AC-3
Format/Info : Audio Coding 3
Codec ID : 2000
Duration : 21mn 45s
Bit rate mode : Constant
Bit rate : 192 Kbps
Channel(s) : 2 channels
Channel positions : L R
Sampling rate : 48.0 KHz
Stream size : 29.9 MiB (7%)
Alignment : Split accross interleaves
Interleave, duration : 42 ms (1.00 video frame)
Interleave, preload duration : 500 ms

Список серий

  • Пилотный эпизод (Эпизод, где Моника берёт новую соседку)
  • Эпизод с сонограммой в конце
  • Эпизод с большим пальцем
  • Эпизод с Джорджем Стефанопоулосом
  • Эпизод с восточногерманским стиральным порошком
  • Эпизод с задом
  • Эпизод, в котором отключается свет
  • Эпизод, где Нана умирает дважды
  • Эпизод, где улетает Суперпёс
  • Эпизод с обезьяной
  • Эпизод с Госпожой Бинг
  • Эпизод с дюжиной лазаний
  • Эпизод с грудью
  • Эпизод с конфетками-сердцами
  • Эпизод с обкуренным парнем
  • Эпизод с двумя частями, Часть 1
  • Эпизод с двумя частями, Часть 2
  • Эпизод с покером
  • Эпизод, где обезьяна сбегает
  • Эпизод с коварным ортодантистом
  • Эпизод с фальшивой Моникой
  • Эпизод с фу-фактором
  • Эпизод с родами
  • Эпизод, где Рейчел узнает
  • Скриншоты


    _________________
    Показать сообщения:    

    Текущее время: Сегодня 08:54

    Часовой пояс: GMT



    Вы не можете начинать темы
    Вы не можете отвечать на сообщения
    Вы не можете редактировать свои сообщения
    Вы не можете удалять свои сообщения
    Вы не можете голосовать в опросах
    Вы не можете прикреплять файлы к сообщениям
    Вы не можете скачивать файлы