Важное объявление!
У Нас Все раздачи мультитрекерные, при нуле пиров в релизах, можете смело вставать на закачку!
 
Автор Сообщение

HUNTER

Стаж:
4 года 8 месяцев
Сообщений:
61987

Репутация: 101

[+] [-]
Вне форума [Профиль] [ЛС]

Друзья Эдди Койла / The Friends of Eddie Coyle
Страна: США
Жанр: триллер, драма, криминал
Год выпуска: 1973
Продолжительность: 01:42:00
Перевод: Авторский (одноголосый закадровый) Ю. Сербин
Cубтитры: русские, английские.
Оригинальная аудиодорожка: английский
Режиссер: Питер Йетс / Peter Yates
В ролях: Роберт Митчум, Питер Бойл, Ричард Джордан, Стивен Китс, Алекс Рокко, Джо Сантос, Митч Райан, Джеймс Толкан и др.
Описание: Эдди Койл, законченный неудачник. Еще одно преступление, и он сядет в тюрьму пожизненно, без надежды на амнистию. Полиция узнает о планируемом ограблении банка в Бостоне и заставляет Койла стать их информатором. Он входит в контакт с бандой, добывает нужные сведения, но на этом полиция не оставляет его в покое. Теперь задача Эдди — помочь захватить босса банды Скализе. Однако Скализе арестовывают и без его помощи, а самого Эдди подставляют, после чего следует приказ убить бедолагу.
Доп. информация: Материал любезно предоставлен denis_mgn_1987, инициаторы перевода: denis_mgn_1987, luka69, atomic dragonfly, jasenka, Lentyai80, motel, foxlight, Alec Storm, Roy 33, Anatoliy555, GKillah, izbk1, urassiks, Kastro. За русские субтитры спасибо Kawamura.
Сэмпл: http://sendfile.su/1045048

Тип релиза: WEB-DL 720p
Контейнер: MKV
Видео: MPEG-4 AVC, 1280x690, 23.976 fps, 4031 Kbps
Аудио 1: Russian AC3, 48000Hz, 2ch, 192kbps
Аудио 2: English AC3, 48000Hz, 2ch, 192kbps

MediaInfo

Формат : Matroska
Версия формата : Version 4 / Version 2
Размер файла : 3,21 Гбайт
Продолжительность : 1 ч. 42 м.
Общий поток : 4505 Кбит/сек
Дата кодирования : UTC 2014-10-04 12:45:25
Программа кодирования : mkvmerge v6.5.0 ('Isn't she lovely') built on Oct 20 2013 12:50:05
Библиотека кодирования : libebml v1.3.0 + libmatroska v1.4.1
Видео
Идентификатор : 1
Формат : AVC
Формат/Информация : Advanced Video Codec
Профиль формата : High@L3.1
Параметр CABAC формата : Нет
Параметр ReFrames формата : 2 кадра
Идентификатор кодека : V_MPEG4/ISO/AVC
Продолжительность : 1 ч. 42 м.
Битрейт : 4031 Кбит/сек
Ширина : 1280 пикселей
Высота : 690 пикселей
Соотношение сторон : 1,85:1
Режим частоты кадров : Постоянный
Частота кадров : 23,976 кадра/сек
Цветовое пространство : YUV
Субдискретизация насыщенности : 4:2:0
Битовая глубина : 8 бит
Тип развёртки : Прогрессивная
Бит/(Пиксели*Кадры) : 0.190
Размер потока : 2,87 Гбайт (89%)
Язык : English
Default : Да
Forced : Нет
Основные цвета : BT.709
Характеристики трансфера : BT.709
Коэффициенты матрицы : BT.709
Аудио #1
Идентификатор : 2
Формат : AC-3
Формат/Информация : Audio Coding 3
Расширение режима : CM (complete main)
Параметр Endianness формата : Big
Идентификатор кодека : A_AC3
Продолжительность : 1 ч. 42 м.
Вид битрейта : Постоянный
Битрейт : 192 Кбит/сек
Каналы : 2 канала
Расположение каналов : Front: L R
Частота : 48,0 КГц
Битовая глубина : 16 бит
Метод сжатия : С потерями
Размер потока : 140 Мбайт (4%)
Заголовок : Юрий Сербин
Язык : Russian
Default : Да
Forced : Нет
Аудио #2
Идентификатор : 3
Формат : AC-3
Формат/Информация : Audio Coding 3
Расширение режима : CM (complete main)
Параметр Endianness формата : Big
Идентификатор кодека : A_AC3
Продолжительность : 1 ч. 42 м.
Вид битрейта : Постоянный
Битрейт : 192 Кбит/сек
Каналы : 2 канала
Расположение каналов : Front: L R
Частота : 48,0 КГц
Битовая глубина : 16 бит
Метод сжатия : С потерями
Размер потока : 140 Мбайт (4%)
Язык : English
Default : Нет
Forced : Нет
Текст #1
Идентификатор : 4
Формат : UTF-8
Идентификатор кодека : S_TEXT/UTF8
Идентификатор кодека/Информация : UTF-8 Plain Text
Язык : Russian
Default : Нет
Forced : Нет
Текст #2
Идентификатор : 5
Формат : UTF-8
Идентификатор кодека : S_TEXT/UTF8
Идентификатор кодека/Информация : UTF-8 Plain Text
Заголовок : CC
Язык : English
Default : Нет
Forced : Нет
Меню
00:00:00.000 : en:1
00:09:30.000 : en:2
00:18:08.000 : en:3
00:27:47.000 : en:4
00:37:09.000 : en:5
00:46:51.000 : en:6
00:55:50.000 : en:7
01:02:47.000 : en:8
01:10:33.000 : en:9
01:18:21.000 : en:10
01:27:39.000 : en:11
01:34:46.000 : en:12

Скриншот названия фильма

Скриншоты


_________________
Показать сообщения:    

Текущее время: Сегодня 14:25

Часовой пояс: GMT



Вы не можете начинать темы
Вы не можете отвечать на сообщения
Вы не можете редактировать свои сообщения
Вы не можете удалять свои сообщения
Вы не можете голосовать в опросах
Вы не можете прикреплять файлы к сообщениям
Вы не можете скачивать файлы
Наши партнеры: интернет магазин Ивановского трикотажа textilla.ru