Важное объявление!
У Нас Все раздачи мультитрекерные, при нуле пиров в релизах, можете смело вставать на закачку!
 
Автор Сообщение

HUNTER

Стаж:
4 года 5 месяцев
Сообщений:
60886

Репутация: 101

[+] [-]
Вне форума [Профиль] [ЛС]

Друзья Эдди Койла / The Friends of Eddie Coyle
Страна: США
Жанр: криминальная драма
Год выпуска: 1973
Продолжительность: 01:42:16
Перевод: Авторский (одноголосый закадровый) Юрий Сербин
Cубтитры: русские (Kawamura), английские
Оригинальная аудиодорожка: английский-Режиссер: Питер Йетс / Peter Yates
В ролях: Роберт Митчум, Питер Бойл, Ричард Джордан, Стивен Китс, Алекс Рокко, Джо Сантос, Митч Райан, Питер Маклин, Кевин О’Моррисон, Марвин Ликтермен, Джеймс Толкэн, Маргарет Лэдд, Мэттью Коулз, Хелена Кэрролл
Описание: По одноименному романа Джорджа Хиггинса.
Эдди Койл, законченный неудачник. Еще одно преступление, и он сядет в тюрьму пожизненно, без надежды на амнистию. Полиция узнает о планируемом ограблении банка в Бостоне и заставляет Койла стать их информатором. Он входит в контакт с бандой, добывает нужные сведения, но на этом полиция не оставляет его в покое. Теперь задача Эдди — помочь захватить босса банды Скализе. Однако Скализе арестовывают и без его помощи, а самого Эдди подставляют, после чего следует приказ убить бедолагу.
IMDb || КиноПоиск-Тип релиза: BDRemux 1080p [The Friends of Eddie Coyle 1973 1080p Blu-ray AVC LPCM 1.0-ESiR (thx coolhdtv)]
Контейнер: MKV
Видео: MPEG-4 AVC Video, 1920x1080 at 23.976 fps, 34997 kbps
Аудио#1: Russian: 48 kHz, AC3, 2.0 ch, 192 kbps
Аудио#2: English: 48 kHz, FLAC, 1.0 ch, 615 kbps
Аудио#3: English: 48 kHz, AC3, 1.0 ch, 192 kbps |Commentary by Yates
Формат субтитров: softsub (SRT)
Сэмпл

Дополнительно

Цитата:
Цитата:

Инициаторы перевода Сербина: denis_mgn_1987, luka69, atomic dragonfly, jasenka, Lentyai80, motel, foxlight, Alec Storm, Roy 33, Anatoliy555, GKillah, izbk1, urassiks, Kastro.

MediaInfo

General
Unique ID : 210050772716341316764723333789595813018 (0x9E064EAB517400D481A4E9037FD5449A)
Complete name : I:\Друзья Эдди Койла\The.Friends.of.Eddie.Coyle.1973.Criterion.BDRemux. rutracker.mkv
Format : Matroska
Format version : Version 2
File size : 25.7 GiB
Duration : 1h 42mn
Overall bit rate mode : Variable
Overall bit rate : 36.0 Mbps
Movie name : Release for RuTracker
Writing application : mkvmerge v5.0.1 ('Es ist Sommer') built on Nov 6 2011 16:23:40
Writing library : libebml v1.2.2 + libmatroska v1.3.0
Video
ID : 1
Format : AVC
Format/Info : Advanced Video Codec
Format profile : High@L4.1
Format settings, CABAC : Yes
Format settings, ReFrames : 4 frames
Codec ID : V_MPEG4/ISO/AVC
Duration : 1h 42mn
Bit rate mode : Variable
Maximum bit rate : 37.0 Mbps
Width : 1 920 pixels
Height : 1 080 pixels
Display aspect ratio : 16:9
Frame rate mode : Constant
Frame rate : 23.976 fps
Color space : YUV
Chroma subsampling : 4:2:0
Bit depth : 8 bits
Scan type : Progressive
Title : The.Friends.of.Eddie.Coyle.1973.Criterion.BDRemux. rutracker
Language : English
Default : Yes
Forced : No
Audio #1
ID : 2
Format : AC-3
Format/Info : Audio Coding 3
Mode extension : CM (complete main)
Format settings, Endianness : Big
Codec ID : A_AC3
Duration : 1h 42mn
Bit rate mode : Constant
Bit rate : 192 Kbps
Channel(s) : 2 channels
Channel positions : Front: L R
Sampling rate : 48.0 KHz
Bit depth : 16 bits
Compression mode : Lossy
Stream size : 140 MiB (1%)
Language : Russian
Default : Yes
Forced : No
Audio #2
ID : 3
Format : FLAC
Format/Info : Free Lossless Audio Codec
Codec ID : A_FLAC
Duration : 1h 42mn
Bit rate mode : Variable
Channel(s) : 1 channel
Sampling rate : 48.0 KHz
Bit depth : 24 bits
Writing library : libFLAC 20080709 (UTC 2008-07-09)
Language : English
Default : No
Forced : No
Audio #3
ID : 4
Format : AC-3
Format/Info : Audio Coding 3
Mode extension : CM (complete main)
Format settings, Endianness : Big
Codec ID : A_AC3
Duration : 1h 42mn
Bit rate mode : Constant
Bit rate : 192 Kbps
Channel(s) : 1 channel
Channel positions : Front: C
Sampling rate : 48.0 KHz
Bit depth : 16 bits
Compression mode : Lossy
Stream size : 140 MiB (1%)
Title : commentary
Language : English
Default : No
Forced : No
Text #1
ID : 5
Format : UTF-8
Codec ID : S_TEXT/UTF8
Codec ID/Info : UTF-8 Plain Text
Language : Russian
Default : No
Forced : No
Text #2
ID : 6
Format : UTF-8
Codec ID : S_TEXT/UTF8
Codec ID/Info : UTF-8 Plain Text
Language : English
Default : No
Forced : No
Menu
00:00:00.000 : en:Gathering details
00:04:45.410 : en:Knuckles and pieces
00:09:43.165 : en:Dillon's
00:10:51.400 : en:Changing hands
00:16:13.555 : en:For a twenty
00:18:20.766 : en:Like clockwork
00:30:28.201 : en:Family man
00:32:49.968 : en:Helping Uncle
00:37:22.114 : en:Undisclosed interests
00:39:16.437 : en:Two problems
00:43:09.962 : en:No time
00:47:04.404 : en:Smart plays
00:52:13.004 : en:Going south
00:56:28.676 : en:New plans
00:58:24.501 : en:An uneasy position
00:59:51.921 : en:Bread for bread
01:02:46.721 : en:Sold out
01:10:46.033 : en:Something else
01:14:58.994 : en:Special delivery
01:18:34.251 : en:Hooked
01:22:14.387 : en:Too late
01:24:39.074 : en:Orders from the Man
01:27:51.933 : en:All wrapped up
01:31:49.337 : en:Game time
01:35:21.340 : en:"He's out"
01:39:58.659 : en:Friends

Скриншоты


_________________
Показать сообщения:    

Текущее время: Сегодня 13:04

Часовой пояс: GMT



Вы не можете начинать темы
Вы не можете отвечать на сообщения
Вы не можете редактировать свои сообщения
Вы не можете удалять свои сообщения
Вы не можете голосовать в опросах
Вы не можете прикреплять файлы к сообщениям
Вы не можете скачивать файлы
Наши партнеры: интернет магазин Ивановского трикотажа textilla.ru