Ивановский Торрент трекер
Яндекс.Погода
 

[Цитировать]
HUNTER

Дружба особого назначения
Год выпуска: 2012
Производство: Россия, Приор Продакшн, Про100 Фильм
Жанр: Боевик
Продолжительность: 01:30:24
Субтитры: нет
Режиссёр: Алексей Феоктистов
В ролях: Олег Масленников-Войтов, Дмитрий Орлов, Константин Тополага, Андрей Харыбин, Александр Андриенко, Саид Дашук-Нигматулин, Иван Мамонов, Руслан Ягудин, Олег Васильков, Юлия Подозерова
Описание: Два друга, Михаил Волков и Виктор Каминцев, служили в «горячих точках», а затем жизнь их разбросала по разным ведомствам. Один стал следователем криминальной полиции, другой возглавил спецподразделение снайперов группы «Альфа». Расследуя очередное заказное убийство крупного предпринимателя Волков понимает, что искать надо снайпера. Так он выходит на давнего друга, не зная, что тот был внедрен в криминальную среду и работал там под прикрытием. Во главе преступного синдиката стоит загадочный человек — «Паук». Узнав о ФСБ-шных «корнях» Каминцева, мафия похищает его семью — жену и маленькую дочь. Шантажируя Каминцева расправой над близкими, мафиози требует от него выполнить «заказ». Смогут ли герои победить организованную преступность? Удастся ли им вызволить жену и дочь Каминцева из рук подонков? Поймут ли они, кто скрывается за личиной «Паука»?


Качество: HDTV 1080i
Контейнер: TS
Видео: MPEG4 Video (H264) 1920x1080, ~ 9870 Кбит/сек, 25.00fps 0.19 bit/pixel
Аудио: AC-3, 6 канала, 48,0 КГц, ~448 kbps
Сторонней рекламы нет!

MI

ОбщееИдентификатор : 1 (0x1)Полное имя : F:\Фильмы торренты\Druzhba.osobogo.naznacheniya.2012.HDTV.(1080i).MediaClub.tsФормат : MPEG-TSРазмер файла : 6,86 ГбайтПродолжительность : 1 ч. 30 м.Режим общего битрейта : ПеременныйОбщий поток : 10,9 Мбит/сек
ВидеоИдентификатор : 3551 (0xDDF)Идентификатор меню : 1 (0x1)Формат : AVCФормат/Информация : Advanced Video CodecПрофиль формата : Main@L4.0Параметр CABAC формата : ДаПараметр ReFrames формата : 3 кадраИдентификатор кодека : 27Продолжительность : 1 ч. 30 м.Битрейт : 9870 Кбит/секШирина : 1920 пикселейВысота : 1080 пикселейСоотношение сторон : 16:9Частота кадров : 25,000 кадров/секСтандарт вещания : ComponentЦветовое пространство : YUVСубдискретизация насыщенности : 4:2:0Битовая глубина : 8 битТип развёртки : ЧересстрочнаяПорядок развёртки : Верхнее поле первоеБит/(Пиксели*Кадры) : 0.190Размер потока : 6,23 Гбайт (91%)Основные цвета : BT.709Характеристики трансфера : BT.709Коэффициенты матрицы : BT.709
АудиоИдентификатор : 3553 (0xDE1)Идентификатор меню : 1 (0x1)Формат : AC-3Формат/Информация : Audio Coding 3Расширение режима : CM (complete main)Параметр Endianness формата : BigИдентификатор кодека : 6Продолжительность : 1 ч. 30 м.Вид битрейта : ПостоянныйБитрейт : 448 Кбит/секКаналы : 6 каналовРасположение каналов : Front: L C R, Side: L R, LFEЧастота : 48,0 КГцБитовая глубина : 16 битМетод сжатия : С потерямиРазмер потока : 290 Мбайт (4%)Язык : Russian
Раздача группы:
Отдельное спасибо nikolspup за предоставление исходника.

Скриншоты



Показать сообщения:    

Текущее время: 11-Дек 09:41

Часовой пояс: UTC ± 0


Вы не можете начинать темы
Вы не можете отвечать на сообщения
Вы не можете редактировать свои сообщения
Вы не можете удалять свои сообщения
Вы не можете голосовать в опросах
Вы не можете прикреплять файлы к сообщениям
Вы не можете скачивать файлы

!ВНИМАНИЕ!
Сайт не предоставляет электронные версии произведений, а занимается лишь коллекционированием и каталогизацией ссылок, присылаемых и публикуемых на форуме нашими читателями. Если вы являетесь правообладателем какого-либо представленного материала и не желаете, чтобы ссылка на него находилась в нашем каталоге, свяжитесь с нами, и мы незамедлительно удалим ее. Файлы для обмена на трекере предоставлены пользователями сайта, и администрация не несет ответственности за их содержание. Просьба не заливать файлы, защищенные авторскими правами, а также файлы нелегального содержания!