Другое Будущее / Mou Hitotsu no Mirai wo / もうひとつの未来を [ONA] [1-3 из 3] [Без хардсаба] [JAP, SUB] [2013 г., фантастика, WEBRip] [1080p] :: Ивановский Торрент трекер
Важное объявление!
У Нас Все раздачи мультитрекерные, при нуле пиров в релизах, можете смело вставать на закачку!
Статистика раздачи
Размер:     |    Зарегистрирован:     |    Скачан:     |   
Нет
 
     
 
 
Автор Сообщение

HUNTER

Стаж:
4 года 11 месяцев
Сообщений:
66112

Репутация: 101

[+] [-]
Вне форума [Профиль] [ЛС]

Другое Будущее / Mou Hitotsu no Mirai wo / もうひとつの未来を
Страна: Япония
Год выпуска: 2013 г.
Жанр: фантастика
Тип: ONA
Продолжительность: 3 эп. по 8 мин.
Режиссер: Камияма Кэндзи
Студия: Production I.G
Описание: История о невероятном устройстве, придуманном молодыми исследователями "Лаборатории Будущего А.В", благодаря которому появляется возможность путешествовать во времени. Но действительно ли так хорошо знать свое будущее?
Качество: WEBRip
Тип релиза: Без хардсаба
Формат видео: MKV
Наличие линковки: Нет
Видео: AVC, 1920x1080, 2040 Kbps, 23.976 fps
Аудио: AAC, 126 Kbps, 44.1 KHz, 2 ch Язык Японский
Субтитры: встроенные Язык субтитров русский ; Перевод: antibillotic & kuro & ximik
Подробные тех. данные
GeneralUnique ID : 250511519603172044589982104873434102444 (0xBC76C381F58DA6F6923B802499CC3AAC)Complete name : H:\Мое\Mou Hitotsu no Mirai wo\Mou Hitotsu no Mirai wo. もうひとつの未来を。 ONA 第1話 (YT 1920x1080 x264 AAC).mkvFormat : MatroskaFormat version : Version 4 / Version 2File size : 124 MiBDuration : 7mn 59sOverall bit rate : 2 168 KbpsEncoded date : UTC 2014-05-02 14:47:40Writing application : mkvmerge v6.7.0 ('Back to the Ground') 32bit built on Jan 8 2014 15:03:17Writing library : libebml v1.3.0 + libmatroska v1.4.1
VideoID : 1Format : AVCFormat/Info : Advanced Video CodecFormat profile : High@L4.0Format settings, CABAC : YesFormat settings, ReFrames : 3 framesCodec ID : avc1Codec ID/Info : Advanced Video CodingDuration : 7mn 59sBit rate : 2 040 KbpsWidth : 1 920 pixelsHeight : 1 080 pixelsDisplay aspect ratio : 16:9Frame rate mode : ConstantFrame rate : 23.976 fpsColor space : YUVChroma subsampling : 4:2:0Bit depth : 8 bitsScan type : ProgressiveBits/(Pixel*Frame) : 0.041Stream size : 117 MiB (94%)
AudioID : 2Format : AACFormat/Info : Advanced Audio CodecFormat profile : LCCodec ID : 40Duration : 7mn 59sBit rate mode : ConstantBit rate : 126 KbpsChannel(s) : 2 channelsChannel positions : Front: L RSampling rate : 44.1 KHzCompression mode : LossyStream size : 7.18 MiB (6%)
TextID : 3Format : ASSCodec ID : S_TEXT/ASSCodec ID/Info : Advanced Sub Station AlphaCompression mode : LosslessDefault : YesForced : No
Скриншоты

_________________
Показать сообщения:    

Текущее время: Сегодня 21:06

Часовой пояс: GMT



Вы не можете начинать темы
Вы не можете отвечать на сообщения
Вы не можете редактировать свои сообщения
Вы не можете удалять свои сообщения
Вы не можете голосовать в опросах
Вы не можете прикреплять файлы к сообщениям
Вы не можете скачивать файлы