Важное объявление!
У Нас Все раздачи мультитрекерные, при нуле пиров в релизах, можете смело вставать на закачку!
Статистика раздачи
Размер:     |    Зарегистрирован:     |    Скачан:     |   
Нет
 
     
 
 
Автор Сообщение

HUNTER

Стаж:
5 лет
Сообщений:
68391

Репутация: 101

[+] [-]
Вне форума [Профиль] [ЛС]

Дроп-шот без тайн."Рыбалка моё хобби" №60 / Drop shot bez tajemnic."Wędkarstwo moje hobby"
Год выпуска: 2011
Страна: Польша
Жанр: Рыбная ловля
Продолжительность: 00:46:05
Перевод: Субтитры
Русские субтитры: есть
Режиссер: Павел Мирецки
Участники:ЛУКАШ МАРЧИНЬСКИ, ПАВЕЛ МИРЕЦКИ
Описание: Относительно новый метод рыбной ловли на спиннинг, который был взят нами из США и завоевывает все больше сторонников,одновременно открывая новые и ранее недоступные возможности приманки...
В фильме показаны специальные аксессуары к способу ловли дроп-шотом, порядок их применения в снасти, специальные приманки для дроп-шота и особенности их устройства и проводки, приемы работы оснастки при ловле дроп-шотом разных видов рыб.

MediaInfo

Полное имя : D:\Кино\Переводы\Дроп-шот 2\Drop shot bez tajemnic.avi
Формат : AVI
Формат/Информация : Audio Video Interleave
Размер файла : 549 Мбайт
Продолжительность : 46 м.
Идентификатор : 0
Формат : MPEG-4 Visual
Профиль формата : Advanced Simple@L5
Параметр BVOP формата : 1
Параметр QPel формата : Нет
Параметр GMC формата : Без точки перехода
Параметр матрицы формата : Default (H.263)
Идентификатор кодека : XVID
Идентификатор кодека/Подсказка : XviD
Продолжительность : 46 м.
Битрейт : 1465 Кбит/сек
Ширина : 704 пикс.
Высота : 384 пикс.
Соотношение сторон : 16:9
Частота кадров : 25,000 кадр/сек
Цветовое пространство : YUV
Подвыборка цветности : 4:2:0
Битовая глубина : 8 бит
Тип развёртки : Прогрессивная
Метод сжатия : С потерями
Бит/(Пиксели*Кадры) : 0.217
Размер потока : 483 Мбайт (88%)
Библиотека кодирования : XviD 58
Идентификатор : 1
Формат : AC-3
Формат/Информация : Audio Coding 3
Расширение режима : CM (complete main)
Идентификатор кодека : 2000
Продолжительность : 46 м.
Вид битрейта : Постоянный
Битрейт : 192 Кбит/сек
Каналы : 2 канала
Расположение каналов : Front: L R
Частота : 48,0 КГц
Битовая глубина : 16 бит
Метод сжатия : С потерями
Размер потока : 63,3 Мбайт (12%)
Выравнивание : Разделение по промежуткам
Продолжительность промежутка : 40 мс. (1,00 видеокадр)
Время предзагрузки промежутка : 500 ms
Качество: DVDRip
Формат: AVI
Видео кодек: XviD
Аудио кодек: MP3
Видео: XviD,. 704x384 (16:9), 1465 kbps, 25,000 fps
Аудио: MP3, 192 kbps, 48 kHz, 2 ch

Скриншоты


_________________
Показать сообщения:    

Текущее время: Сегодня 21:54

Часовой пояс: GMT



Вы не можете начинать темы
Вы не можете отвечать на сообщения
Вы не можете редактировать свои сообщения
Вы не можете удалять свои сообщения
Вы не можете голосовать в опросах
Вы не можете прикреплять файлы к сообщениям
Вы не можете скачивать файлы