Важное объявление!
У Нас Все раздачи мультитрекерные, при нуле пиров в релизах, можете смело вставать на закачку!
Статистика раздачи
Размер:     |    Зарегистрирован:     |    Скачан:     |   
Нет
 
     
 
 
Автор Сообщение

HUNTER

Стаж:
5 лет 1 месяц
Сообщений:
68439

Репутация: 101

[+] [-]
Вне форума [Профиль] [ЛС]

Драм / Барабан / Drum
Страна: США
Студия: Dino De Laurentiis Company
Жанр: боевик, драма
Год выпуска: 1976
Продолжительность: 01:36:06
Перевод: Профессиональный (двухголосый закадровый) НТВ+
Cубтитры: нет
Оригинальная аудиодорожка: нет
Режиссер: Стив Карвер / Steve Carver
В ролях: Уоррен Оутс, Исела Вега, Кен Нортон, Пэм Гриер, Яфет Котто, Джон Коликос
Описание: История раба середины 19-го века, который страдает от вынужденной "карьеры" бойца и издевательств белого общества.
II Сэмпл II IMDB II
Тип релиза: HDTV 1080i
Контейнер: TS
Видео: AVC / 1920x1080 / 16:9 / 25.0fps / Bit rate 4938Kbps
Аудио: MP2 / 48.0 KHz / 2ch. / 192kbps / rus / dvo

MediaInfo

Общее
Идентификатор : 1 (0x1)
Полное имя : E:\torrent\Drum.1976.HDTV1080i.ts
Формат : MPEG-TS
Размер файла : 3,62 Гбайт
Продолжительность : 1 ч. 36 м.
Режим общего битрейта : Переменный
Общий поток : 5398 Кбит/сек
Максимальный общий битрейт : 35,5 Мбит/сек
Видео
Идентификатор : 4113 (0x1011)
Идентификатор меню : 1 (0x1)
Формат : AVC
Формат/Информация : Advanced Video Codec
Профиль формата : High@L4.0
Параметр CABAC формата : Да
Параметр ReFrames формата : 3 кадра
Параметр GOP формата : M=4, N=32
Идентификатор кодека : 27
Продолжительность : 1 ч. 36 м.
Вид битрейта : Переменный
Битрейт : 4938 Кбит/сек
Максимальный битрейт : 40,0 Мбит/сек
Ширина : 1920 пикселей
Высота : 1080 пикселей
Соотношение сторон : 16:9
Частота кадров : 25,000 кадров/сек
Стандарт вещания : Component
Цветовое пространство : YUV
Субдискретизация насыщенности : 4:2:0
Битовая глубина : 8 бит
Тип развёртки : Чересстрочная
Порядок развёртки : Верхнее поле первое
Бит/(Пиксели*Кадры) : 0.095
Размер потока : 3,31 Гбайт (91%)
Основные цвета : BT.709
Характеристики трансфера : BT.709
Коэффициенты матрицы : BT.709
Аудио
Идентификатор : 4352 (0x1100)
Идентификатор меню : 1 (0x1)
Формат : MPEG Audio
Версия формата : Version 1
Профиль формата : Layer 2
Идентификатор кодека : 4
Продолжительность : 1 ч. 36 м.
Вид битрейта : Постоянный
Битрейт : 192 Кбит/сек
Каналы : 2 канала
Частота : 48,0 КГц
Метод сжатия : С потерями
Размер потока : 132 Мбайт (4%)

Скриншот с названием фильма

Скриншоты



_________________
Показать сообщения:    

Текущее время: Сегодня 04:18

Часовой пояс: GMT



Вы не можете начинать темы
Вы не можете отвечать на сообщения
Вы не можете редактировать свои сообщения
Вы не можете удалять свои сообщения
Вы не можете голосовать в опросах
Вы не можете прикреплять файлы к сообщениям
Вы не можете скачивать файлы