Ивановский Торрент трекер
Яндекс.Погода
 

[Цитировать]
HUNTER

Дракон: История Брюса Ли / Dragon: The Bruce Lee Story
Страна: США
Студия: Universal
Жанр: Боевик/Драма
Год выпуска: 1993
Продолжительность: 01:53:18
Перевод: Профессиональный (многоголосый закадровый)
Cубтитры: нет
Оригинальная аудиодорожка: нет
Режиссер: Роб Коэн / Rob Cohen
В ролях: Джейсон Скотт Ли /Jason Scott Lee/, Лорен Холли /Lauren Holly/, Майкл Лернед /Michael Learned/, Нэнси Кван, Кэй Тонг Лим /Kay Tong Lim/, Стерлинг Мэйсер /Sterling Macer/, Свен Оле Торсен /Sven Ole Thorsen/, Рик Янг /Ric Young/, Луойонг Ванг, Роберт Вагнер /Robert Wagner
Описание: Перед искусством Брюса Ли преклонялись многие, а его загадочная смерть в 33 года стала шоком для всего мира. Фильм поставлен по книге Линды Ли Кэдуэлл "Брюс Ли: Человек, которого знала только я". Это великолепно поставленная биография Брюса Ли - гения кунфу. В фильме рассказывается о его личной жизни и профессиональной карьере. Отлично поставленные боевые сцены и прекрасная актерская игра сделают картину интересной не только для поклонников этого спортсмена и киноактера.
Сэмпл: http://multi-up.com/1013077
Тип релиза: HDTV 1080i
Контейнер: TS
Видео: AVC, 1920х1080, 16:9, 8672 Кбит/сек, 25 fps
Аудио: (русский) MPEG Audio, 192 Кбит/сек, 48 КГц, 2 канала

MediaInfo

Общее
Идентификатор : 16 (0x10)
Полное имя : Dragon The Bruce Lee Story_HD.ts
Формат : MPEG-TS
Размер файла : 7,38 Гбайт
Продолжительность : 1 ч. 53 м.
Режим общего битрейта : Переменный
Общий поток : 9327 Кбит/сек
Видео
Идентификатор : 3402 (0xD4A)
Идентификатор меню : 1402 (0x57A)
Формат : AVC
Формат/Информация : Advanced Video Codec
Профиль формата : High@L4.0
Параметр CABAC формата : Да
Параметр ReFrames формата : 3 кадра
Параметр GOP формата : M=4, N=32
Идентификатор кодека : 27
Продолжительность : 1 ч. 53 м.
Битрейт : 8672 Кбит/сек
Ширина : 1920 пикселей
Высота : 1080 пикселей
Соотношение сторон : 16:9
Частота кадров : 25,000 кадров/сек
Стандарт вещания : PAL
Цветовое пространство : YUV
Субдискретизация насыщенности : 4:2:0
Битовая глубина : 8 бит
Тип развёртки : Чересстрочная
Порядок развёртки : Верхнее поле первое
Бит/(Пиксели*Кадры) : 0.167
Размер потока : 6,86 Гбайт (93%)
Основные цвета : BT.709
Характеристики трансфера : BT.709
Коэффициенты матрицы : BT.709
Аудио
Идентификатор : 4402 (0x1132)
Идентификатор меню : 1402 (0x57A)
Формат : MPEG Audio
Версия формата : Version 1
Профиль формата : Layer 2
Идентификатор кодека : 4
Продолжительность : 1 ч. 53 м.
Вид битрейта : Постоянный
Битрейт : 192 Кбит/сек
Каналы : 2 канала
Частота : 48,0 КГц
Метод сжатия : С потерями
Задержка видео : 125 мс.
Размер потока : 156 Мбайт (2%)
Язык : std
Язык, дополнительно : Clean effects

Скриншоты

Показать сообщения:    

Текущее время: 21-Сен 14:41

Часовой пояс: UTC - 1


Вы не можете начинать темы
Вы не можете отвечать на сообщения
Вы не можете редактировать свои сообщения
Вы не можете удалять свои сообщения
Вы не можете голосовать в опросах
Вы не можете прикреплять файлы к сообщениям
Вы не можете скачивать файлы

!ВНИМАНИЕ!
Сайт не предоставляет электронные версии произведений, а занимается лишь коллекционированием и каталогизацией ссылок, присылаемых и публикуемых на форуме нашими читателями. Если вы являетесь правообладателем какого-либо представленного материала и не желаете, чтобы ссылка на него находилась в нашем каталоге, свяжитесь с нами, и мы незамедлительно удалим ее. Файлы для обмена на трекере предоставлены пользователями сайта, и администрация не несет ответственности за их содержание. Просьба не заливать файлы, защищенные авторскими правами, а также файлы нелегального содержания!