Важное объявление!
У Нас Все раздачи мультитрекерные, при нуле пиров в релизах, можете смело вставать на закачку!
 
Автор Сообщение

HUNTER

Стаж:
4 года 10 месяцев
Сообщений:
65531

Репутация: 101

[+] [-]
Вне форума [Профиль] [ЛС]

До встречи с тобой / Me Before You
-Год выпуска: 2016
Страна: США, Великобритания
Студия: Warner Bros Entertainment, New Line Cinema, Metro-Goldwyn-Mayer (MGM)
Жанр: драма
Продолжительность: 01:50:14
Перевод: Профессиональный (дублированный) Blu-ray CEE / CP Дистрибуция
Cубтитры: русские, английские
Оригинальная аудиодорожка: английский-Режиссер: Теа Шэррок / Thea Sharrock-В ролях: Сэм Клафлин, Эмилия Кларк, Ванесса Кирби, Эйлин Данвуди, Пабло Рэйбоулд, Гэбриэлль Дауни, Генри Чарльз, Саманта Спиро, Брендан Койл, Дженна Коулман и другие.-Роли дублировали: Станислав Тикунов, Александра Курагина, Анна Киселева, Надежда Подъяпольская, Анастасия Лапина, Анатолий Пашнин, Иван Жарков, Александр Гаврилин, Елена Соловьева, Петр Тобилевич, Илья Хвостиков, Евгений Волоцкий, Александр Хошабаев, Елена Войновская и другие.-Описание: Лу Кларк знает, сколько шагов от автобусной остановки до ее дома. Она знает, что ей очень нравится работа в кафе и что, скорее всего, она не любит своего бойфренда Патрика. Но Лу не знает, что вот-вот потеряет свою работу и что в ближайшем будущем ей понадобятся все силы, чтобы преодолеть свалившиеся на нее проблемы. Уилл Трейнор знает, что сбивший его мотоциклист отнял у него желание жить. И он точно знает, что надо сделать, чтобы положить конец всему этому. Но он не знает, что Лу скоро ворвется в его мир буйством красок. И они оба не знают, что навсегда изменят жизнь друг друга.-Качество: BDRip 1080p |VietHD|
Формат: MKV
Видео кодек: H.264
Аудио кодек: AC3, DTS
Видео: H.264, 1920x804 (2.40:1), 23.976 fps, ~15.5 Mbps, 0.419 bit/pixel
Аудио:
  • русская |Blu-ray CEE|: AC3, 48 kHz, 6 ch, 640 kbps
  • украинская |iTunes|: AC3, 48 kHz, 6 ch, 384 kbps
  • английская |Оригинал|: DTS, 48 kHz, 6 ch, 1509 kbps
-Сэмпл \ Кинопоиск-

Скриншоты

Media Info

Код:
General
Unique ID                      : 223301853658373792077961203163240422213 (0xA7FE5F66A1B02D5B99EDFB626B015B45)
Complete name                  : E:\Video\HD\Movies (HD)\Me Before You (2016) (BDRip 1080p).mkv
Format                         : Matroska
Format version                 : Version 4 / Version 2
File size                      : 13.9 GiB
Duration                       : 1h 50mn
Overall bit rate               : 18.0 Mbps
Encoded date                   : UTC 2016-10-02 06:49:58
Writing application            : mkvmerge v8.8.0 ('Wind at my back') 32bit
Writing library                : libebml v1.3.3 + libmatroska v1.4.4
DURATION                       : 01:45:09.392000000
NUMBER_OF_FRAMES               : 1746
NUMBER_OF_BYTES                : 53792
_STATISTICS_WRITING_APP        : mkvmerge v8.8.0 ('Wind at my back') 32bit
_STATISTICS_WRITING_DATE_UTC   : 2016-10-02 06:49:58
_STATISTICS_TAGS               : BPS DURATION NUMBER_OF_FRAMES NUMBER_OF_BYTES
Video
ID                             : 1
Format                         : AVC
Format/Info                    : Advanced Video Codec
Format profile                 : High@L4.1
Format settings, CABAC         : Yes
Format settings, ReFrames      : 5 frames
Codec ID                       : V_MPEG4/ISO/AVC
Duration                       : 1h 50mn
Bit rate                       : 15.5 Mbps
Width                          : 1 920 pixels
Height                         : 804 pixels
Display aspect ratio           : 2.40:1
Frame rate mode                : Constant
Frame rate                     : 23.976 fps
Color space                    : YUV
Chroma subsampling             : 4:2:0
Bit depth                      : 8 bits
Scan type                      : Progressive
Bits/(Pixel*Frame)             : 0.419
Stream size                    : 11.7 GiB (84%)
Writing library                : x264 core 148 r2705 3f5ed56
Encoding settings              : cabac=1 / ref=5 / deblock=1:-3:-3 / analyse=0x3:0x133 / me=umh / subme=11 / psy=1 / psy_rd=1.05:0.00 / mixed_ref=1 / me_range=32 / chroma_me=1 / trellis=2 / 8x8dct=1 / cqm=0 / deadzone=21,11 / fast_pskip=0 / chroma_qp_offset=-2 / threads=18 / lookahead_threads=3 / sliced_threads=0 / slices=4 / nr=0 / decimate=0 / interlaced=0 / bluray_compat=0 / constrained_intra=0 / bframes=8 / b_pyramid=2 / b_adapt=2 / b_bias=0 / direct=3 / weightb=1 / open_gop=0 / weightp=2 / keyint=250 / keyint_min=23 / scenecut=40 / intra_refresh=0 / rc_lookahead=40 / rc=2pass / mbtree=0 / bitrate=15500 / ratetol=1.0 / qcomp=0.65 / qpmin=0 / qpmax=51 / qpstep=4 / cplxblur=20.0 / qblur=0.5 / vbv_maxrate=62500 / vbv_bufsize=78125 / nal_hrd=none / filler=0 / ip_ratio=1.40 / pb_ratio=1.30 / aq=3:0.75 / zones=82,90,b=1.5/644,740,b=1.5/950,1678,b=1.5/73360,73449,b=1.5/81400,83050,b=1.5/107769,107952,b=2/123953,124024,b=2/125591,132540,b=2/152333,155800,b=1.5/155801,158210,b=0.2
Language                       : English
Default                        : Yes
Forced                         : No
DURATION                       : 01:50:14.525000000
NUMBER_OF_FRAMES               : 158590
NUMBER_OF_BYTES                : 12814137599
_STATISTICS_WRITING_APP        : mkvmerge v8.8.0 ('Wind at my back') 32bit
_STATISTICS_WRITING_DATE_UTC   : 2016-10-02 06:49:58
_STATISTICS_TAGS               : BPS DURATION NUMBER_OF_FRAMES NUMBER_OF_BYTES
Audio #1
ID                             : 2
Format                         : AC-3
Format/Info                    : Audio Coding 3
Mode extension                 : CM (complete main)
Format settings, Endianness    : Big
Codec ID                       : A_AC3
Duration                       : 1h 50mn
Bit rate mode                  : Constant
Bit rate                       : 640 Kbps
Channel(s)                     : 6 channels
Channel positions              : Front: L C R, Side: L R, LFE
Sampling rate                  : 48.0 KHz
Bit depth                      : 16 bits
Compression mode               : Lossy
Stream size                    : 505 MiB (4%)
Title                          : DUB (Blu-ray CEE / CP Дистрибуция)
Language                       : Russian
Default                        : Yes
Forced                         : No
Audio #2
ID                             : 3
Format                         : AC-3
Format/Info                    : Audio Coding 3
Mode extension                 : CM (complete main)
Format settings, Endianness    : Big
Codec ID                       : A_AC3
Duration                       : 1h 50mn
Bit rate mode                  : Constant
Bit rate                       : 384 Kbps
Channel(s)                     : 6 channels
Channel positions              : Front: L C R, Side: L R, LFE
Sampling rate                  : 48.0 KHz
Bit depth                      : 16 bits
Compression mode               : Lossy
Stream size                    : 303 MiB (2%)
Title                          : DUB (iTunes)
Language                       : Ukrainian
Default                        : No
Forced                         : No
Audio #3
ID                             : 4
Format                         : DTS
Format/Info                    : Digital Theater Systems
Mode                           : 16
Format settings, Endianness    : Big
Codec ID                       : A_DTS
Duration                       : 1h 50mn
Bit rate mode                  : Constant
Bit rate                       : 1 509 Kbps
Channel(s)                     : 6 channels
Channel positions              : Front: L C R, Side: L R, LFE
Sampling rate                  : 48.0 KHz
Bit depth                      : 24 bits
Compression mode               : Lossy
Stream size                    : 1.16 GiB (8%)
Title                          : Original
Language                       : English
Default                        : No
Forced                         : No
Text #1
ID                             : 5
Format                         : UTF-8
Codec ID                       : S_TEXT/UTF8
Codec ID/Info                  : UTF-8 Plain Text
Title                          : Full (iTunes)
Language                       : Russian
Default                        : No
Forced                         : No
Text #2
ID                             : 6
Format                         : UTF-8
Codec ID                       : S_TEXT/UTF8
Codec ID/Info                  : UTF-8 Plain Text
Title                          : Forced (iTunes)
Language                       : Ukrainian
Default                        : No
Forced                         : No
Text #3
ID                             : 7
Format                         : UTF-8
Codec ID                       : S_TEXT/UTF8
Codec ID/Info                  : UTF-8 Plain Text
Title                          : Full
Language                       : English
Default                        : No
Forced                         : No
Text #4
ID                             : 8
Format                         : UTF-8
Codec ID                       : S_TEXT/UTF8
Codec ID/Info                  : UTF-8 Plain Text
Title                          : Full (SDH)
Language                       : English
Default                        : No
Forced                         : No
Menu
00:00:00.000                   : en:1
00:12:40.969                   : en:2
00:20:01.575                   : en:3
00:29:06.244                   : en:4
00:39:38.418                   : en:5
00:49:13.868                   : en:6
01:01:15.547                   : en:7
01:10:16.796                   : en:8
01:19:16.418                   : en:9
01:32:06.479                   : en:10
01:37:58.331                   : en:11
01:45:55.349                   : en:12
-

_________________
Показать сообщения:    

Текущее время: Сегодня 01:59

Часовой пояс: GMT



Вы не можете начинать темы
Вы не можете отвечать на сообщения
Вы не можете редактировать свои сообщения
Вы не можете удалять свои сообщения
Вы не можете голосовать в опросах
Вы не можете прикреплять файлы к сообщениям
Вы не можете скачивать файлы