Ивановский Торрент трекер
Яндекс.Погода
 

[Цитировать]
HUNTER



Информация о фильме
Название: Дочь Бога
Оригинальное название: Exposed
Год выхода: 2016
Жанр: Драма
Режиссер: Деклан Дэйл
В ролях: Ана де Армас, Мира Сорвино, Биг Дэдди Кэйн, Кристофер МакДональд, Лаура Гомез, Мелисса Линтон, Киану Ривз, Клара Вонг, Майкл Рисполи, Дения Браче
О фильме:
С женщиной, которая стала свидетелем чуда, начинают происходить странные вещи. А в это время полицейский детектив пытается разобраться в том, что привело к смерти его напарника.
[img]/parse/s.rutor.org/imdb/pic/4019560.gif[/img]
Страна: США
Студия: Company Films, Emmett/Furla Films, Fortitude International, Palm-Star Entertainment, Remark Films
Продолжительность: 01:41:53
Перевод: Любительский многоголосый [Paradox & Omskbird records]
Перевод: Татьяна Масаковская
Роли озвучивали: Алексей Гнеушев, Павел Ярощик, Максим Максимов, Анна Тух и Ольга Федорова
Звукорежиссер: Павел Квентов
Файл
Кодек: MPEG-4 AVC
Качество: BDRip 1080p
Видео: MPEG-4 AVC, 15.4 Мбит/с, 1920x800
Звук: Русский (AC3, 6 ch, 448 Кбит/с), английский (DTS, 6 ch, 1509 Кбит/с)
Субтитры: Русские, aнглийские, aнглийские (Forced for Spanish parts), Испанские (Forced for English parts)
Релиз от:

Инфо-файл


General
Complete name : Exposed.2016.BDRip.1080p.ExKinoRay.mkv
Format : Matroska
Format version : Version 2
File size : 12.6 GiB
Duration : 1h 41mn
Overall bit rate : 17.7 Mbps
Encoded date : UTC 2016-03-12 23:43:48
Writing application : mkvmerge v5.8.0 ('No Sleep / Pillow') built on Sep 2 2012 15:37:04
Writing library : libebml v1.2.3 + libmatroska v1.3.0
Video
ID : 1
Format : AVC
Format/Info : Advanced Video Codec
Format profile : High@L4.1
Format settings, CABAC : Yes
Format settings, ReFrames : 5 frames
Codec ID : V_MPEG4/ISO/AVC
Duration : 1h 41mn
Bit rate : 15.4 Mbps
Width : 1 920 pixels
Height : 800 pixels
Display aspect ratio : 2.40:1
Frame rate mode : Constant
Frame rate : 24.000 fps
Color space : YUV
Chroma subsampling : 4:2:0
Bit depth : 8 bits
Scan type : Progressive
Bits/(Pixel*Frame) : 0.417
Stream size : 10.9 GiB (87%)
Writing library : x264 core 142 r2431+42 c69a006 tMod [8-bit@all X86_64]
Encoding settings : cabac=1 / ref=5 / deblock=1:-3:-3 / analyse=0x3:0x133 / me=umh / subme=11 / psy=1 / fade_compensate=0.00 / psy_rd=1.05:0.00 / mixed_ref=1 / me_range=32 / chroma_me=1 / trellis=2 / 8x8dct=1 / cqm=0 / deadzone=21,11 / fast_pskip=0 / chroma_qp_offset=-2 / threads=12 / lookahead_threads=2 / sliced_threads=0 / nr=0 / decimate=0 / interlaced=0 / bluray_compat=0 / constrained_intra=0 / fgo=0 / bframes=8 / b_pyramid=2 / b_adapt=2 / b_bias=0 / direct=3 / weightb=1 / open_gop=0 / weightp=2 / keyint=250 / keyint_min=24 / scenecut=40 / intra_refresh=0 / rc_lookahead=60 / rc=crf / mbtree=0 / crf=16.9000 / qcomp=0.65 / qpmin=0:0:0 / qpmax=69:69:69 / qpstep=4 / vbv_maxrate=62500 / vbv_bufsize=78125 / crf_max=0.0 / nal_hrd=none / filler=0 / ip_ratio=1.30 / pb_ratio=1.20 / aq=3:0.80 / aq-sensitivity=10.00 / aq-factor=1.00:1.00:1.00 / aq2=0 / aq3=0 / zones=451,470,crf=13.5/1444,1470,crf=13.5/6090,6327,crf=13.7/9881,9925,crf=14.7/10851,10910,crf=13.7/11212,11432,crf=15.7/31453,32024,crf=14.7/57793,57977,crf=13.7/58095,58139,crf=14.7/64030,64120,crf=13.7/71365,72502,crf=14.7/73737,77257,crf=14.7/79620,79720,crf=13.7/79912,80059,crf=13.7/83580,88267,crf=15.7/101980,102000,crf=13.7/108036,108518,crf=13.7/112428,112575,crf=13.7/117056,117330,crf=13.7/117802,117935,crf=13.7/123814,123869,crf=13.5/125560,125690,crf=13.7/125916,125934,crf=13.7/126043,128350,crf=13.7/130050,130114,crf=13.7/130414,130472,crf=13.7/133625,133747,crf=14.7/134370,146711,crf=21
Language : English
Default : Yes
Forced : Yes
Matrix coefficients : BT.709
Color range : Limited
Audio #1
ID : 2
Format : AC-3
Format/Info : Audio Coding 3
Mode extension : CM (complete main)
Format settings, Endianness : Big
Codec ID : A_AC3
Duration : 1h 41mn
Bit rate mode : Constant
Bit rate : 448 Kbps
Channel(s) : 6 channels
Channel positions : Front: L C R, Side: L R, LFE
Sampling rate : 48.0 KHz
Bit depth : 16 bits
Compression mode : Lossy
Stream size : 326 MiB (3%)
Language : Russian
Default : Yes
Forced : Yes
Audio #2
ID : 3
Format : DTS
Format/Info : Digital Theater Systems
Mode : 16
Format settings, Endianness : Big
Codec ID : A_DTS
Duration : 1h 41mn
Bit rate mode : Constant
Bit rate : 1 509 Kbps
Channel(s) : 6 channels
Channel positions : Front: L C R, Side: L R, LFE
Sampling rate : 48.0 KHz
Bit depth : 16 bits
Compression mode : Lossy
Stream size : 1.07 GiB (9%)
Language : English
Default : No
Forced : No
Text #1
ID : 4
Format : UTF-8
Codec ID : S_TEXT/UTF8
Codec ID/Info : UTF-8 Plain Text
Language : Russian
Default : No
Forced : No
Text #2
ID : 5
Format : UTF-8
Codec ID : S_TEXT/UTF8
Codec ID/Info : UTF-8 Plain Text
Title : English Forced
Language : English
Default : No
Forced : No
Text #3
ID : 6
Format : UTF-8
Codec ID : S_TEXT/UTF8
Codec ID/Info : UTF-8 Plain Text
Language : English
Default : No
Forced : No
Text #4
ID : 7
Format : UTF-8
Codec ID : S_TEXT/UTF8
Codec ID/Info : UTF-8 Plain Text
Title : Spanish for English parts
Language : Spanish
Default : No
Forced : No
Menu
00:00:00.000 : en:Chapter 01
00:06:04.458 : en:Chapter 02
00:11:40.625 : en:Chapter 03
00:17:12.375 : en:Chapter 04
00:23:18.625 : en:Chapter 05
00:30:05.458 : en:Chapter 06
00:35:59.792 : en:Chapter 07
00:45:04.458 : en:Chapter 08
00:49:15.417 : en:Chapter 09
00:56:11.250 : en:Chapter 10
01:01:18.042 : en:Chapter 11
01:06:22.417 : en:Chapter 12
01:10:49.458 : en:Chapter 13
01:16:26.500 : en:Chapter 14
01:21:57.375 : en:Chapter 15
01:29:13.000 : en:Chapter 16

Скриншоты



Показать сообщения:    

Текущее время: 15-Дек 04:44

Часовой пояс: UTC ± 0


Вы не можете начинать темы
Вы не можете отвечать на сообщения
Вы не можете редактировать свои сообщения
Вы не можете удалять свои сообщения
Вы не можете голосовать в опросах
Вы не можете прикреплять файлы к сообщениям
Вы не можете скачивать файлы

!ВНИМАНИЕ!
Сайт не предоставляет электронные версии произведений, а занимается лишь коллекционированием и каталогизацией ссылок, присылаемых и публикуемых на форуме нашими читателями. Если вы являетесь правообладателем какого-либо представленного материала и не желаете, чтобы ссылка на него находилась в нашем каталоге, свяжитесь с нами, и мы незамедлительно удалим ее. Файлы для обмена на трекере предоставлены пользователями сайта, и администрация не несет ответственности за их содержание. Просьба не заливать файлы, защищенные авторскими правами, а также файлы нелегального содержания!