Важное объявление!
У Нас Все раздачи мультитрекерные, при нуле пиров в релизах, можете смело вставать на закачку!
 
Автор Сообщение

HUNTER

Стаж:
4 года 7 месяцев
Сообщений:
61449

Репутация: 101

[+] [-]
Вне форума [Профиль] [ЛС]

Дофус. Том I: Джулит / Dofus. Livre I: Julith
Страна: Франция
Жанр: мультфильм, фэнтези, комедия, приключения
Продолжительность: 01:47:53
Год выпуска: 2015
Перевод: Любительский (многоголосый закадровый) - ArtVoiceStudio
Русские субтитры: есть

Режиссёр: Антони Ру / Anthony Roux, Жан-Жак Дени / Jean-Jacques Denis
Роли озвучивали: Сован Деланоэ, Жан-Клод Донда, Эммануэль Гранди, Летиция Лефевр, Франсуа Сьенер
Описание: В четырехсотом году, в Бонте, юный Жорис мирно живет со своим приемным отцом, Керубимом Крепаном, старым экафлипом. У него есть подруга, Лилот, которая каждый день приходит к нему в гости. Казалось бы, обыкновенная семья. Но такой ли обычный ребенок Жорис, и такой ли обычный у него отец?
Качество: [url=viewtopic.php?t=5292310]WEB-DLRip[/url]
Формат: AVI
Видео: 720x384 (1.88:1), 24 fps, XviD build 73 ~1730 kbps avg, 0.26 bit/pixel
Аудио: 48 kHz, AC3 Dolby Digital, 2/0 (L,R) ch, ~192 kbps - многоголосый
Аудио: 48 kHz, AC3 Dolby Digital, 3/2 (L,C,R,l,r) + LFE ch, ~384 kbps - оригинал (отдельно)
Субтитры: русские, английские, французские

Подробные технические данные

ОбщееПолное имя : H:\Dofus_Livre.I_Julith.2015.web-dlrip_[1.46]_[teko]\Dofus_Livre.I_Julith.2015.web-dlrip_[1.46].aviФормат : AVIФормат/Информация : Audio Video InterleaveРазмер файла : 1,46 ГбайтПродолжительность : 1 ч. 47 м.Общий поток : 1932 Кбит/секПрограмма кодирования : VirtualDubMod 1.5.10.3 | www.virtualdub-fr.org || (build 2550/release)Библиотека кодирования : VirtualDubMod build 2550/release
ВидеоИдентификатор : 0Формат : MPEG-4 VisualПрофиль формата : Advanced Simple@L5Параметр BVOP формата : 2Параметр QPel формата : НетПараметр GMC формата : Без точки переходаПараметр матрицы формата : ВыборочнаяИдентификатор кодека : XVIDИдентификатор кодека/Подсказка : XviDПродолжительность : 1 ч. 47 м.Битрейт : 1731 Кбит/секШирина : 720 пикселейВысота : 384 пикселяСоотношение сторон : 1,85:1Частота кадров : 24,000 кадра/секЦветовое пространство : YUVСубдискретизация насыщенности : 4:2:0Битовая глубина : 8 битТип развёртки : ПрогрессивнаяМетод сжатия : С потерямиБит/(Пиксели*Кадры) : 0.261Размер потока : 1,30 Гбайт (90%)Библиотека кодирования : XviD 73
АудиоИдентификатор : 1Формат : AC-3Формат/Информация : Audio Coding 3Расширение режима : CM (complete main)Параметр Endianness формата : BigИдентификатор кодека : 2000Продолжительность : 1 ч. 47 м.Вид битрейта : ПостоянныйБитрейт : 192 Кбит/секКаналы : 2 каналаРасположение каналов : Front: L RЧастота : 48,0 КГцБитовая глубина : 16 битМетод сжатия : С потерямиРазмер потока : 148 Мбайт (10%)Выравнивание : Разделение по промежуткамПродолжительность промежутка : 42 мс. (1,00 видеокадр)Время предзагрузки промежутка : 500 мс.
Релиз группы:
[url=viewtopic.php?t=1677970] [/url]
--

_________________
Показать сообщения:    

Текущее время: Сегодня 20:55

Часовой пояс: GMT



Вы не можете начинать темы
Вы не можете отвечать на сообщения
Вы не можете редактировать свои сообщения
Вы не можете удалять свои сообщения
Вы не можете голосовать в опросах
Вы не можете прикреплять файлы к сообщениям
Вы не можете скачивать файлы
Наши партнеры: интернет магазин Ивановского трикотажа textilla.ru