Дотянуться до неба / Touch the sky (Эдриан Виллс / Adrian Wills) [2011, документальный, TVRip] :: Ивановский Торрент трекер
Важное объявление!
У Нас Все раздачи мультитрекерные, при нуле пиров в релизах, можете смело вставать на закачку!
 
Автор Сообщение

HUNTER

Стаж:
4 года 11 месяцев
Сообщений:
66051

Репутация: 101

[+] [-]
Вне форума [Профиль] [ЛС]

Дотянуться до неба / Touch the sky
Дата/Год выпуска: 2011
Страна: Канада
Жанр: документальный
Продолжительность: 00:53:14
Перевод: Студийный (одноголосый закадровый)
Доп. инфо о переводе: Телекомпания "Видеофильм ТВ"
Русские субтитры: нет
Режиссер: Эдриан Виллс / Adrian Wills
Описание: Весна 2009. Эксцентричный миллиардер Ги Лалиберте собирается в главное путешествие в своей жизни - в космос. И хотя подготовка к полету длится обычно не менее 9 месяцев, основатель Цирка дю Солей намерен оказаться в невесомости меньше, чем через 5 месяцев!
Сэмпл: http://sendfile.su/1119642
качество: TVRip
формат: AVI
Видео: DivX, 1627 Кбит/сек, 720 x 416 (1.731), 25.000 fps
Аудио: МР3, 128 Кбит/сек, 2 канала, 48,0 КГц

MediaInfo

ОбщееПолное имя : T:\Мои раздачи\Дотянуться до неба - Touch the sky (2011)\Дотянуться до неба - Touch the sky (2011).aviФормат : AVIФормат/Информация : Audio Video InterleaveРазмер файла : 672 МбайтПродолжительность : 53 м.Общий поток : 1765 Кбит/секПрограмма кодирования : VirtualDubModRus 1.5.10.2 (build 2542/release)Библиотека кодирования : VirtualDubMod build 2542/release
ВидеоИдентификатор : 0Формат : MPEG-4 VisualПрофиль формата : Advanced Simple@L5Параметр BVOP формата : 3Параметр QPel формата : НетПараметр GMC формата : Без точки переходаПараметр матрицы формата : Default (H.263)Идентификатор кодека : XVIDИдентификатор кодека/Подсказка : XviDПродолжительность : 53 м.Битрейт : 1627 Кбит/секШирина : 720 пикселейВысота : 416 пикселейСоотношение сторон : 1,731Частота кадров : 25,000 кадров/секЦветовое пространство : YUVСубдискретизация насыщенности : 4:2:0Битовая глубина : 8 битТип развёртки : ПрогрессивнаяМетод сжатия : С потерямиБит/(Пиксели*Кадры) : 0.217Размер потока : 620 Мбайт (92%)Библиотека кодирования : XviD 1.2.1 (UTC 2008-12-04)
АудиоИдентификатор : 1Формат : MPEG AudioВерсия формата : Version 1Профиль формата : Layer 3Идентификатор кодека : 55Идентификатор кодека/Подсказка : MP3Продолжительность : 53 м.Вид битрейта : ПостоянныйБитрейт : 128 Кбит/секКаналы : 2 каналаЧастота : 48,0 КГцМетод сжатия : С потерямиРазмер потока : 48,7 Мбайт (7%)Выравнивание : Соединение по промежуткамПродолжительность промежутка : 40 мс. (1,00 видеокадр)Время предзагрузки промежутка : 504 мс.Библиотека кодирования : LAME3.98rНастройки программы : -m s -V 4 -q 2 -lowpass 17 -b 128

Скриншоты


_________________
Показать сообщения:    

Текущее время: Сегодня 02:00

Часовой пояс: GMT



Вы не можете начинать темы
Вы не можете отвечать на сообщения
Вы не можете редактировать свои сообщения
Вы не можете удалять свои сообщения
Вы не можете голосовать в опросах
Вы не можете прикреплять файлы к сообщениям
Вы не можете скачивать файлы