Важное объявление!
У Нас Все раздачи мультитрекерные, при нуле пиров в релизах, можете смело вставать на закачку!
Статистика раздачи
Размер:     |    Зарегистрирован:     |    Скачан:     |   
Нет
 
     
 
 
Автор Сообщение

HUNTER

Стаж:
5 лет
Сообщений:
68004

Репутация: 101

[+] [-]
Вне форума [Профиль] [ЛС]

Достичь Терры / Toward the Terra / Terra e... / 地球へ・・・-
Страна: Япония
Год выпуска: 1980 г.
Жанр: приключения, фантастика
Тип: Movie
Продолжительность: 119 мин.
Режиссер: Онти Хидэо
Студия: Toei Animation-Информационные ссылки: AniDB || [url=http://myanimelist.net/anime/2560/Terra_e..._(Movie)]MyAnimeList[/url] || World Art-Описание: Пришло время, когда люди полностью уничтожили экологическую систему Земли. Осознав свою ошибку слишком поздно, они создали новое единое правительство и заселили другую галактику, оставив родную планету. Отныне жизнь была вверена компьютерам, сложной системе, осуществляющей контроль за рождаемостью и выявляющей "непригодные элементы" для последующей ликвидации. Такими, преследуемыми и уничтожаемыми, стали Мью, существа, рождающиеся у людей, но на генетическом уровне получившие парапсихические способности. В то время, как человечество счастливо живет, полностью доверяя системе и не желая знать, что происходит за пределами городов, что происходит с детьми, которым после "экзамена на зрелость" запрещается видеть родителей, часть обнаруженных "непригодных" все же удается спасать от смерти: немногочисленное сообщество Мью скрывается на космическом корабле в атмосфере планеты. До той поры, пока, гонимые желающим во что бы то ни стало уничтожить "монстров" человечеством, не будут вынуждены отправиться на поиски своей цели - Терры, легендарной родины людей, земли обетованной, прекрасный образ которой запечатлен в сознании каждого Мью и, единственный, способен вести их через все потери - к мечте.-Качество: BDRip (Kagura)
Формат видео: MKV (есть переход по главам)
Тип релиза: Без хардсаба и линковки
Видео: H.264 (10bit), 1920x1080 (16:9), 23.976 fps, 15.200 Kbit/s
Аудио (RUS int): AC3 (2.0), 16bit, 48 KHz, 384 Kbit/s - AVO (3df) - одноголосый, мужской
Аудио (JAP int): FLAC (2.0), 16bit, 48 KHz, 370 Kbit/s
Аудио (JAP int): TrueHD (5.1), 16bit, 48 KHz, 1.300 Kbit/s
Субтитры (RUS int): ASS - Dharma1982
Субтитры (JAP int): PGS from BD-Примечания к релизу: видео брал на "Няшке" (ничего не добавлял/отрезал), русскую озвучку взял из этой DVD-раздачи (синхронизировал без перекодирования), субтитрами разжился на "Каге" (синхронизировал под это видео, немножко подправил оформление и устранил пару очепяток).

Подробные тех.данные основного файла (MediaInfo)

Код:
Общее
Уникальный идентификатор                 : 171219079365658089322737314036679609106 (0x80CF985F083284FB96D1CD1F079A8B12)
Полное имя                               : F:\Toward the Terra (1980)\Toward the Terra (1980).mkv
Формат                                   : Matroska
Версия формата                           : Version 2
Размер файла                             : 13,6 Гбайт
Продолжительность                        : 1 ч. 51 м.
Режим общего битрейта                    : Переменный
Общий поток                              : 17,4 Мбит/сек
Название фильма                          : Toward the Terra (1980)
Дата кодирования                         : UTC 2014-03-30 18:02:31
Программа кодирования                    : mkvmerge v6.8.0 ('Theme for Great Cities') 64bit built on Mar  2 2014 21:34:26
Библиотека кодирования                   : libebml v1.3.0 + libmatroska v1.4.1
Видео
Идентификатор                            : 1
Формат                                   : AVC
Формат/Информация                        : Advanced Video Codec
Профиль формата                          : High 10@L5.1
Параметр CABAC формата                   : Да
Параметр ReFrames формата                : 8 кадров
Идентификатор кодека                     : V_MPEG4/ISO/AVC
Продолжительность                        : 1 ч. 51 м.
Ширина                                   : 1920 пикселей
Высота                                   : 1080 пикселей
Соотношение сторон                       : 16:9
Режим частоты кадров                     : Постоянный
Частота кадров                           : 23,976 кадра/сек
Цветовое пространство                    : YUV
Субдискретизация насыщенности            : 4:2:0
Битовая глубина                          : 10 бит
Тип развёртки                            : Прогрессивная
Заголовок                                : [BDRip 1920x1080 x264 Hi10P] - Kagura
Библиотека кодирования                   : x264 core 130 r2274+704+41 4bc4774 tMod+TriAQ [10-bit@all X86_64]
Настройки программы                      : cabac=1 / ref=8 / deblock=1:0:0 / analyse=0x3:0x133 / me=umh / subme=10 / psy=1 / fade_compensate=0.00 / psy_rd=1.30:0.10 / mixed_ref=1 / me_range=32 / chroma_me=1 / trellis=2 / 8x8dct=1 / cqm=0 / deadzone=21,11 / fast_pskip=1 / chroma_qp_offset=-4 / threads=12 / lookahead_threads=3 / sliced_threads=0 / nr=0 / decimate=0 / interlaced=0 / bluray_compat=0 / constrained_intra=0 / fgo=0 / bframes=10 / b_pyramid=2 / b_adapt=2 / b_bias=0 / direct=3 / weightb=1 / open_gop=0 / weightp=2 / keyint=480 / keyint_min=12 / scenecut=50 / intra_refresh=0 / rc=crf / mbtree=0 / crf=18.5000 / qcomp=0.80 / qpmin=14 / qpmax=48 / qpstep=4 / ip_ratio=1.30 / pb_ratio=1.30 / aq=1:0.75 / aq-sensitivity=10.00 / aq-factor=1.00:1.00:1.00 / aq2=0 / aq3=0
Язык                                     : Japanese
Default                                  : Да
Forced                                   : Да
Аудио #1
Идентификатор                            : 2
Формат                                   : AC-3
Формат/Информация                        : Audio Coding 3
Расширение режима                        : CM (complete main)
Параметр Endianness формата              : Big
Идентификатор кодека                     : A_AC3
Продолжительность                        : 1 ч. 51 м.
Вид битрейта                             : Постоянный
Битрейт                                  : 384 Кбит/сек
Каналы                                   : 2 канала
Расположение каналов                     : Front: L R
Частота                                  : 48,0 КГц
Битовая глубина                          : 16 бит
Метод сжатия                             : С потерями
Размер потока                            : 308 Мбайт (2%)
Заголовок                                : 3df (ANIDUB)
Язык                                     : Russian
Default                                  : Нет
Forced                                   : Нет
Аудио #2
Идентификатор                            : 3
Формат                                   : FLAC
Формат/Информация                        : Free Lossless Audio Codec
Идентификатор кодека                     : A_FLAC
Продолжительность                        : 1 ч. 51 м.
Вид битрейта                             : Переменный
Каналы                                   : 2 канала
Частота                                  : 48,0 КГц
Битовая глубина                          : 16 бит
Заголовок                                : Original 2.0
Библиотека кодирования                   : libFLAC 1.2.1 (UTC 2007-09-17)
Язык                                     : Japanese
Default                                  : Нет
Forced                                   : Нет
Аудио #3
Идентификатор                            : 4
Формат                                   : TrueHD
Идентификатор кодека                     : A_TRUEHD
Продолжительность                        : 1 ч. 51 м.
Вид битрейта                             : Переменный
Максимальный битрейт                     : 2043 Кбит/сек
Каналы                                   : 6 каналов
Расположение каналов                     : Front: L C R, Side: L R, LFE
Частота                                  : 48,0 КГц
Метод сжатия                             : Без потерь
Заголовок                                : Original 5.1
Язык                                     : Japanese
Default                                  : Нет
Forced                                   : Нет
Текст #1
Идентификатор                            : 5
Формат                                   : ASS
Идентификатор кодека                     : S_TEXT/ASS
Идентификатор кодека/Информация          : Advanced Sub Station Alpha
Метод сжатия                             : Без потерь
Заголовок                                : Dharma1982
Язык                                     : Russian
Default                                  : Нет
Forced                                   : Нет
Текст #2
Идентификатор                            : 6
Формат                                   : PGS
Режим смешивания                         : zlib
Идентификатор кодека                     : S_HDMV/PGS
Идентификатор кодека/Информация          : The same subtitle format used on BDs/HD-DVDs
Язык                                     : Japanese
Default                                  : Нет
Forced                                   : Нет
Меню
00:00:00.000                             : ru:Part 1
00:04:50.039                             : ru:Part 2
00:20:08.165                             : ru:Part 3
00:34:06.669                             : ru:Part 4
00:52:39.865                             : ru:Part 5
01:12:02.860                             : ru:Part 6
01:23:55.155                             : ru:Part 7
01:35:48.367                             : ru:Part 8
01:47:32.112                             : ru:Part 9

Подробные тех.данные основного файла (AVDump)

Код:
File: F:\Toward the Terra (1980)\Toward the Terra (1980).mkv
Duration: 01:51:59 (6719.38)
Track #1: video ([BDRip 1920x1080 x264 Hi10P] - Kagura)
  lang: jpn (2)
  codc: V_MPEG4/ISO/AVC -> H264/AVC (22)
  reso: 1920x1080 -> 16:9
  fram: 23.976 fps
  rate: 15233 kbps (15232.5)
  dura: 01:51:59 (6719.34)
  size: 11.92 GB (12794070166)
Track #2: audio (3df (ANIDUB))
  lang: rus -> Russian (15)
  codc: A_AC3 -> AC3 (2)
  chan: 2 -> Stereo
  samp: 48000 Hz
  rate: 384 kbps (384.04)
  dura: 01:51:59 (6719.04)
  size: 307.60 MB (322546190)
Track #3: audio (Original 2.0)
  lang: jpn -> Japanese (2)
  codc: A_FLAC -> Other (15)
  chan: 2 -> Stereo
  samp: 48000 Hz
  rate: 369 kbps (368.59)
  dura: 01:51:59 (6718.81)
  size: 295.22 MB (309564064)
Track #4: audio (Original 5.1)
  lang: jpn -> Japanese (2)
  codc: A_TRUEHD -> Unknown (1)
  chan: 6 -> 5.1 Surround
  samp: 48000 Hz
  rate: 1303 kbps (1303.04)
  dura: 01:51:59 (6719.38)
  size: 1.02 GB (1094450402)
Track #5: subtitles (Dharma1982)
  lang: rus -> Russian (15)
  type: S_TEXT/ASS -> ASS (5)
  size: 86.76 KB (88838)
Track #6: subtitles
  lang: jpn -> Japanese (2)
  type: S_HDMV/PGS -> Unknown (1)
  size: 36.40 MB (38163089)
Sizes: (check sanity)
  disk: 13.61 GB (14614240529)
  trac: 5.56 GB (5968948157) [based on track size]
  bitr: 13.52 GB (14520663070) [based on bitrate]
  tdif: 8.05 GB (8645292372) 59.15%
  bdif: 89.24 MB (93577458) 0.64%

Подробные тех.данные Promotion (MediaInfo)

Код:
Общее
Полное имя                               : F:\Toward the Terra (1980)\Bonus\Promotion 1.vob
Формат                                   : MPEG-PS
Размер файла                             : 74,1 Мбайт
Продолжительность                        : 1 м. 7 с.
Режим общего битрейта                    : Переменный
Общий поток                              : 9250 Кбит/сек
Видео
Идентификатор                            : 224 (0xE0)
Формат                                   : MPEG Video
Версия формата                           : Version 2
Профиль формата                          : Main@Main
Параметр BVOP формата                    : Да
Параметр матрицы формата                 : Выборочная
Параметр GOP формата                     : Variable
Продолжительность                        : 1 м. 7 с.
Вид битрейта                             : Переменный
Битрейт                                  : 8682 Кбит/сек
Максимальный битрейт                     : 9800 Кбит/сек
Ширина                                   : 720 пикселей
Высота                                   : 480 пикселей
Соотношение сторон                       : 16:9
Частота кадров                           : 23,976 кадра/сек
Стандарт вещания                         : NTSC
Цветовое пространство                    : YUV
Субдискретизация насыщенности            : 4:2:0
Битовая глубина                          : 8 бит
Тип развёртки                            : Прогрессивная
Порядок развёртки                        : 2:3 Pulldown
Метод сжатия                             : С потерями
Бит/(Пиксели*Кадры)                      : 1.048
Временной код первого кадра              : 02:56:05:00
Оригинал временного кода                 : Group of pictures header
Размер потока                            : 69,5 Мбайт (94%)
Аудио
Идентификатор                            : 189 (0xBD)-128 (0x80)
Формат                                   : AC-3
Формат/Информация                        : Audio Coding 3
Расширение режима                        : CM (complete main)
Параметр Endianness формата              : Big
Режим смешивания                         : DVD-Video
Продолжительность                        : 1 м. 7 с.
Вид битрейта                             : Постоянный
Битрейт                                  : 384 Кбит/сек
Каналы                                   : 2 канала
Расположение каналов                     : Front: L R
Частота                                  : 48,0 КГц
Битовая глубина                          : 16 бит
Метод сжатия                             : С потерями
Размер потока                            : 3,07 Мбайт (4%)

Отличия от других раздач

От этой - там 720р, здесь 1080р.
-

_________________
Показать сообщения:    

Текущее время: Сегодня 00:43

Часовой пояс: GMT



Вы не можете начинать темы
Вы не можете отвечать на сообщения
Вы не можете редактировать свои сообщения
Вы не можете удалять свои сообщения
Вы не можете голосовать в опросах
Вы не можете прикреплять файлы к сообщениям
Вы не можете скачивать файлы