Важное объявление!
У Нас Все раздачи мультитрекерные, при нуле пиров в релизах, можете смело вставать на закачку!
Статистика раздачи
Размер:     |    Зарегистрирован:     |    Скачан:     |   
Нет
 
     
 
 
Автор Сообщение

HUNTER

Стаж:
5 лет 1 месяц
Сообщений:
68429

Репутация: 101

[+] [-]
Вне форума [Профиль] [ЛС]

Дорогой Фрэнки / Dear Frankie
Страна: Великобритания
Студия: Inside Track Productions, Scorpio Films и др.
Жанр: драма, мелодрама
Год выпуска: 2004
Продолжительность: 01:44:48
Перевод: Профессиональный (полное дублирование) West Video
Перевод 2: Профессиональный (многоголосый, закадровый)
Cубтитры: русские, английские
Оригинальная аудиодорожка: английский
Режиссер: Шона Ауэрбак / Shona Auerbach
В ролях: Эмили Мортимер, Джерард Батлер, Джек МакЭлхоун, Мэри Ригганс, Шарон Смолл, Софи Майн, Кэти Мерфи, Шон Браун, Джейд Джонсон, Анна Хепберн, Рони Бриджес
Описание: Лиззи со своей матерью и девятилетним сыном Фрэнки постоянно переезжает с места на место, скрываясь от бывшего мужа. На некоторое время их новым домом становится шотландский город Гринок. Лиззи долгие годы поддерживает для сына миф о том, что его отец — моряк, служащий на корабле «Аккра». Для этого она регулярно пишет Фрэнки письма от имени Дэйви, которого он никогда не видел. Но когда «Аккра» на несколько дней прибывает в местный порт, Лиззи вынуждена нанять незнакомца, который исполнит роль отца Фрэнки.

Sample
Тип релиза: WEB-DL 1080p
Контейнер: MKV
Видео: MPEG4 AVC Video, H264, 1916x1072, 23.976 fps, 4661 kbps
Аудио: Russian (AC3, 6 ch, 384 kbps, 16 bits, 48.0 KHz) - Dub
Аудио 2: Russian (AC3, 6 ch, 384 kbps, 16 bits, 48.0 KHz) - MVO
Аудио 3: English (AC3, 6 ch, 384 kbps, 16 bits, 48.0 KHz) - оригинал
Формат субтитров: softsub (SRT)

MediaInfo

General
Unique ID : 196740820903757330892114544040562124390 (0x9402E761272B8034A8E0E13F5887E666)
Complete name : E:\Dear Frankie 2004 WEB-DL 1080p.mkv
Format : Matroska
Format version : Version 4 / Version 2
File size : 4.34 GiB
Duration : 1h 44mn
Overall bit rate : 5 931 Kbps
Encoded date : UTC 2016-03-16 06:03:16
Writing application : mkvmerge v6.1.0 ('Old Devil') built on Mar 2 2013 14:32:37
Writing library : libebml v1.3.0 + libmatroska v1.4.0
Video
ID : 1
Format : AVC
Format/Info : Advanced Video Codec
Format profile : High@L4.0
Format settings, CABAC : Yes
Format settings, ReFrames : 4 frames
Format settings, GOP : N=1
Codec ID : V_MPEG4/ISO/AVC
Duration : 1h 44mn
Bit rate : 4 661 Kbps
Width : 1 916 pixels
Height : 1 072 pixels
Display aspect ratio : 16:9
Frame rate mode : Constant
Frame rate : 23.976 fps
Color space : YUV
Chroma subsampling : 4:2:0
Bit depth : 8 bits
Scan type : Progressive
Bits/(Pixel*Frame) : 0.095
Stream size : 3.41 GiB (79%)
Language : English
Default : Yes
Forced : No
Color primaries : BT.709
Transfer characteristics : BT.709
Matrix coefficients : BT.709
Audio #1
ID : 2
Format : AC-3
Format/Info : Audio Coding 3
Mode extension : CM (complete main)
Format settings, Endianness : Big
Codec ID : A_AC3
Duration : 1h 44mn
Bit rate mode : Constant
Bit rate : 384 Kbps
Channel count : 6 channels
Channel positions : Front: L C R, Side: L R, LFE
Sampling rate : 48.0 KHz
Bit depth : 16 bits
Compression mode : Lossy
Stream size : 288 MiB (6%)
Title : Dub
Language : Russian
Default : Yes
Forced : No
Audio #2
ID : 3
Format : AC-3
Format/Info : Audio Coding 3
Mode extension : CM (complete main)
Format settings, Endianness : Big
Codec ID : A_AC3
Duration : 1h 44mn
Bit rate mode : Constant
Bit rate : 384 Kbps
Channel count : 6 channels
Channel positions : Front: L C R, Side: L R, LFE
Sampling rate : 48.0 KHz
Bit depth : 16 bits
Compression mode : Lossy
Stream size : 288 MiB (6%)
Title : MVO
Language : Russian
Default : No
Forced : No
Audio #3
ID : 4
Format : AC-3
Format/Info : Audio Coding 3
Mode extension : CM (complete main)
Format settings, Endianness : Big
Codec ID : A_AC3
Duration : 1h 44mn
Bit rate mode : Constant
Bit rate : 384 Kbps
Channel count : 6 channels
Channel positions : Front: L C R, Side: L R, LFE
Sampling rate : 48.0 KHz
Bit depth : 16 bits
Compression mode : Lossy
Stream size : 288 MiB (6%)
Language : English
Default : No
Forced : No
Text #1
ID : 5
Format : UTF-8
Codec ID : S_TEXT/UTF8
Codec ID/Info : UTF-8 Plain Text
Language : Russian
Default : No
Forced : No
Text #2
ID : 6
Format : UTF-8
Codec ID : S_TEXT/UTF8
Codec ID/Info : UTF-8 Plain Text
Language : English
Default : No
Forced : No
Menu
00:00:00.000 : en:Moving Again
00:06:29.000 : en:Stamps & Secrets
00:14:49.000 : en:New Friends
00:19:26.000 : en:The Bet
00:25:21.000 : en:Mommy's Wardrobe
00:31:22.000 : en:Looking For A Man
00:38:04.000 : en:The Stranger
00:47:10.000 : en:Winning The Bet
00:53:05.000 : en:A Day With Dad
01:04:28.000 : en:Flesh & Blood
01:09:51.000 : en:One More Day
01:20:15.000 : en:We're All Connected
01:29:56.000 : en:Obituary
01:38:19.000 : en:Last Letter
01:42:08.000 : en:End Credits

Скриншоты


_________________
Показать сообщения:    

Текущее время: Сегодня 13:14

Часовой пояс: GMT



Вы не можете начинать темы
Вы не можете отвечать на сообщения
Вы не можете редактировать свои сообщения
Вы не можете удалять свои сообщения
Вы не можете голосовать в опросах
Вы не можете прикреплять файлы к сообщениям
Вы не можете скачивать файлы