Важное объявление!
У Нас Все раздачи мультитрекерные, при нуле пиров в релизах, можете смело вставать на закачку!
 
Автор Сообщение

HUNTER

Стаж:
4 года 10 месяцев
Сообщений:
65557

Репутация: 101

[+] [-]
Вне форума [Профиль] [ЛС]

Дорога на Санта-Фе / Santa Fe trail
-Страна: США
Жанр: драма, приключения, вестерн
Год выпуска: 1940
Продолжительность: 01:49:38-Перевод 1: Профессиональный (двухголосый закадровый) - Светла
Перевод 2: Одноголосый закадровый-Cубтитры: английские
Оригинальная аудиодорожка: английский-Режиссер: Майкл Кёртис / Michael Curtiz-В ролях: Эррол Флинн, Оливия де Хэвиллэнд, Гинн "Биг Бой" Уильямс, Ван Хефлин, Хенри О'Нилл, Джон Лайтел, Рональд Рейган, Уильям Ландигэн, Алан Хэйл, Рэймонд Мэсси-Описание:
1854 год. Вест-Пойнт, первый Федеральный кадетский кавалерийский корпус. Джеб Стюарт — новый кадет, который с успехом начинает проходить обучение. Молодой человек находится на хорошем счету у командиров, но, тем не менее, наживает себе врага в лице кадета Карла Райдера радикального аболициониста, настроенного изменить классовую и кастовую систему Америки.
Этот тайный последователь фанатика Джона Брауна, стремящегося освободить всех рабов при помощи оружия и силы, в казарме завязывает драку со Стюартом, впоследствии чего Райдера исключают из Вест-Пойнта.
Самому же Джебу и его друзьям дан приказ следовать на территорию штата Канзас, где они должны прекратить противозаконные действия идеолога Джона Брауна и вооруженных до зубов его приспешников. Здесь, на одной из пыльных дорог ведущих в Санта-Фе, он вновь встретит своего недоброжелателя Райдера.
Банда Брауна уличена в контрабанде оружия и отряд кавалерии окружает усадьбу, где забаррикадировались отщепенцы. Им предлагают сдаться, но бандиты отказываются. Начинается кровавый бой…--Сэмпл: Скачать-Тип релиза: BDRemux 1080p
Контейнер: MKV-Видео: MPEG-4 AVC Video; 18495 kbps; 1080p; 23.976 fps; 16:9; High Profile 4.1
Аудио 1: Russian; AC3; 48.0 KHz; 2ch; 192 Kbps DVO
Аудио 2: Russian; AC3; 48.0 KHz; 2ch; 192 Kbps VO
Аудио 3: English; FLAC; 48.0 KHz; 2ch; 419 Kbps

MediaInfo

Format : Matroska
Format version : Version 4 / Version 2
File size : 14.8 GiB
Duration : 1h 49mn
Overall bit rate mode : Variable
Overall bit rate : 19.3 Mbps
Encoded date : UTC 2016-06-08 09:12:08
Writing application : mkvmerge v8.3.0 ('Over the Horizon') 64bit
Writing library : libebml v1.3.1 + libmatroska v1.4.2
Attachments : poster.jpg
Video
ID : 1
Format : MPEG Video
Format version : Version 2
Format profile : Main@High
Format settings, BVOP : Yes
Format settings, Matrix : Custom
Format settings, GOP : M=3, N=16
Codec ID : V_MPEG2
Codec ID/Info : MPEG 1 or 2 Video
Duration : 1h 49mn
Bit rate mode : Variable
Bit rate : 18.5 Mbps
Maximum bit rate : 32.0 Mbps
Width : 1 920 pixels
Height : 1 080 pixels
Display aspect ratio : 16:9
Frame rate mode : Constant
Frame rate : 23.976 (24000/1001) fps
Standard : Component
Color space : YUV
Chroma subsampling : 4:2:0
Bit depth : 8 bits
Scan type : Progressive
Compression mode : Lossy
Bits/(Pixel*Frame) : 0.372
Time code of first frame : 00:00:00:00
Time code source : Group of pictures header
GOP, Open/Closed : Closed
Stream size : 14.2 GiB (96%)
Writing library : TMPGEnc Video Mastering Works 5 Version. 5.1.1.52
Default : Yes
Forced : No
Color primaries : BT.709
Transfer characteristics : BT.709
Matrix coefficients : BT.709
Audio #1
ID : 2
Format : AC-3
Format/Info : Audio Coding 3
Mode extension : CM (complete main)
Format settings, Endianness : Big
Codec ID : A_AC3
Duration : 1h 49mn
Bit rate mode : Constant
Bit rate : 192 Kbps
Channel(s) : 2 channels
Channel positions : Front: L R
Sampling rate : 48.0 KHz
Frame rate : 31.250 fps (1536 spf)
Compression mode : Lossy
Stream size : 151 MiB (1%)
Title : DVO
Language : Russian
Default : Yes
Forced : No
Audio #2
ID : 3
Format : AC-3
Format/Info : Audio Coding 3
Mode extension : CM (complete main)
Format settings, Endianness : Big
Codec ID : A_AC3
Duration : 1h 49mn
Bit rate mode : Constant
Bit rate : 192 Kbps
Channel(s) : 2 channels
Channel positions : Front: L R
Sampling rate : 48.0 KHz
Frame rate : 31.250 fps (1536 spf)
Compression mode : Lossy
Stream size : 151 MiB (1%)
Title : VO
Language : Russian
Default : No
Forced : No
Audio #3
ID : 4
Format : FLAC
Format/Info : Free Lossless Audio Codec
Codec ID : A_FLAC
Duration : 1h 49mn
Bit rate mode : Variable
Bit rate : 419 Kbps
Channel(s) : 2 channels
Channel positions : Front: L R
Sampling rate : 48.0 KHz
Frame rate : 11.719 fps (4096 spf)
Bit depth : 16 bits
Stream size : 329 MiB (2%)
Writing library : libFLAC 1.3.1 (UTC 2014-11-25)
Language : English
Default : No
Forced : No

Скриншоты


_________________
Показать сообщения:    

Текущее время: Сегодня 18:37

Часовой пояс: GMT



Вы не можете начинать темы
Вы не можете отвечать на сообщения
Вы не можете редактировать свои сообщения
Вы не можете удалять свои сообщения
Вы не можете голосовать в опросах
Вы не можете прикреплять файлы к сообщениям
Вы не можете скачивать файлы