Важное объявление!
У Нас Все раздачи мультитрекерные, при нуле пиров в релизах, можете смело вставать на закачку!
Статистика раздачи
Размер:     |    Зарегистрирован:     |    Скачан:     |   
Нет
 
     
 
 
Автор Сообщение

HUNTER

Стаж:
5 лет
Сообщений:
68390

Репутация: 101

[+] [-]
Вне форума [Профиль] [ЛС]

Дорога в ад / Привет с дороги в ад / Шоссе в ад / Highway to Hell
Страна: США
Студия: Hemdale
Жанр: ужасы, комедия
Год выпуска: 1991
Продолжительность: 01:33:38
Перевод: Авторский (одноголосый закадровый) Кашкин
Перевод 2: Авторский (одноголосый закадровый) Горчаков
Перевод 3: Авторский (одноголосый закадровый) Иванов
Перевод 4: Профессиональный (многоголосый закадровый) ОРТ
Cубтитры: нет
Оригинальная аудиодорожка: английский
Режиссер: Эйт де Йонг / Ate de Jong
В ролях: Патрик Берджин, Адам Сторк, Чад Лоу, Кристи Свенсон, Бен Стиллер, Лита Форд.
Описание: Чарли Сайкс и его подруга Рэйчел Кларк убегают из дома и отправляются в Лас-Вегас, намереваясь там пожениться. Они решают поехать по объездной дороге и останавливаются на заправке под названием «Последний шанс Сэма». Ее хозяин Сэм советует молодым людям не засыпать после того, как они проедут две трети дороги. Но они не слушают совета и засыпают в машине. Неожиданно появляется полицейская машина, и шериф арестовывает Рэйчел. Чарли возвращается один на автозаправочную станцию, и Сэм говорит ему, что Рэйчел была арестована полицейским из Ада, где она станет одной из невест самого Сатаны. Если он хочет спасти свою невесту, ему придется самому отправляться прямо в Ад…
На подбородке полицейского видны буквы «S.J.+L.Q.», означающие Стив Джонсон плюс Линней Куигли, которые в то время были супругами. Это последний фильм Кевина Питера Холла (1955-1991), снимавшегося в картинах «Пророчество» (1979), «Без предупреждения» (1983), «Одной темной ночью» (1983), «Монстр в туалете» (1986), «Гарри и Хендерсоны» (1987), «Хищник» (1987), «Хищник-2» (1990). Рост актера был 210 сантиметров. Он умер от СПИДа, которым заразился во время переливания крови несколькими месяцами ранее, когда попал в очень серьезную автомобильную аварию в Лос-Анджелесе. Бюджет картины составил 9 миллионов долларов. Академия фантастических фильмов, фэнтази и фильмов ужасов США номинировала гримера Стива Джонсона на свой приз «Сатурн» за лучший грим.
Доп. информация: Русские звуковые дорожки взяты с этих раздач [url=http://rutracker.org/forum/tracker.php?nm=Highway%20to%20Hell%20(1992]http://rutracker.org/forum/tracker.php?nm=Highway%20to%20Hell%20(1992[/url] авторам большое спасибо.
За синхронизацию дорожек огромное спасибо Нордер.
При пересборе двд были использованы программы:
PgcDemux - разделение компонентов диска на файлы
Muxman - мультиплексирование и авторинг DVD
VobBlanker - реавторинг DVD

Скрин завершения проекта

Бонусы: Меню отсутствует
Сэмпл: http://sendfile.su/1091886
Тип релиза: DVD9 (Custom)
Контейнер: DVD-Video
Видео: NTSC 4:3 (720x480) VBR
Аудио: Russian (Dolby AC3, 192 Кбит/сек,2 ch)
Аудио 2: Russian (Dolby AC3, 192 Кбит/сек, 2 ch)
Аудио 3: Russian (Dolby AC3, 192 Кбит/сек, 2 ch)
Аудио 4: Russian (Dolby AC3, 192 Кбит/сек, 2 ch)
Аудио 4: English (Dolby AC3, 224 Кбит/сек, 2 ch)

DVDInfo

Size: 4.87 Gb ( 5 105 032 KBytes ) - DVD-9
Enabled regions: 1, 2, 3, 4, 5, 6, 7, 8
VTS_01 :
Play Length: 01:33:38
Video: NTSC 4:3 (720x480) VBR
Audio:
Russian (Dolby AC3, 2 ch)
Russian (Dolby AC3, 2 ch)
Russian (Dolby AC3, 2 ch)
Russian (Dolby AC3, 2 ch)
English (Dolby AC3, 2 ch)
Menu Video:
NTSC 4:3 (720x480) VBR
Menu English Language Unit :
Chapter (PTT) Menu

MediaInfo

Общее
Полное имя : M:\Highway to Hell_1992\VIDEO_TS\VTS_01_1.VOB
Формат : MPEG-PS
Размер файла : 1024 Мбайт
Продолжительность : 20 м.
Режим общего битрейта : Переменный
Общий поток : 6904 Кбит/сек
Видео
Идентификатор : 224 (0xE0)
Формат : MPEG Video
Версия формата : Version 2
Профиль формата : Main@Main
Параметр BVOP формата : Да
Параметр матрицы формата : Выборочная
Параметр GOP формата : M=2, N=12
Продолжительность : 20 м.
Вид битрейта : Переменный
Битрейт : 5775 Кбит/сек
Максимальный битрейт : 8776 Кбит/сек
Ширина : 720 пикселей
Высота : 480 пикселей
Соотношение сторон : 4:3
Частота кадров : 23,976 кадра/сек
Стандарт вещания : NTSC
Цветовое пространство : YUV
Субдискретизация насыщенности : 4:2:0
Битовая глубина : 8 бит
Тип развёртки : Прогрессивная
Порядок развёртки : 2:3 Pulldown
Метод сжатия : С потерями
Бит/(Пиксели*Кадры) : 0.697
Размер потока : 857 Мбайт (84%)
Аудио #1
Идентификатор : 189 (0xBD)-128 (0x80)
Формат : AC-3
Формат/Информация : Audio Coding 3
Расширение режима : CM (complete main)
Параметр Endianness формата : Big
Режим смешивания : DVD-Video
Продолжительность : 20 м.
Вид битрейта : Постоянный
Битрейт : 192 Кбит/сек
Каналы : 2 канала
Расположение каналов : Front: L R
Частота : 48,0 КГц
Битовая глубина : 16 бит
Метод сжатия : С потерями
Размер потока : 28,5 Мбайт (3%)
Аудио #2
Идентификатор : 189 (0xBD)-129 (0x81)
Формат : AC-3
Формат/Информация : Audio Coding 3
Расширение режима : CM (complete main)
Параметр Endianness формата : Big
Режим смешивания : DVD-Video
Продолжительность : 20 м.
Вид битрейта : Постоянный
Битрейт : 192 Кбит/сек
Каналы : 2 канала
Расположение каналов : Front: L R
Частота : 48,0 КГц
Битовая глубина : 16 бит
Метод сжатия : С потерями
Размер потока : 28,5 Мбайт (3%)
Аудио #3
Идентификатор : 189 (0xBD)-130 (0x82)
Формат : AC-3
Формат/Информация : Audio Coding 3
Расширение режима : CM (complete main)
Параметр Endianness формата : Big
Режим смешивания : DVD-Video
Продолжительность : 20 м.
Вид битрейта : Постоянный
Битрейт : 192 Кбит/сек
Каналы : 2 канала
Расположение каналов : Front: L R
Частота : 48,0 КГц
Битовая глубина : 16 бит
Метод сжатия : С потерями
Размер потока : 28,5 Мбайт (3%)
Аудио #4
Идентификатор : 189 (0xBD)-131 (0x83)
Формат : AC-3
Формат/Информация : Audio Coding 3
Расширение режима : CM (complete main)
Параметр Endianness формата : Big
Режим смешивания : DVD-Video
Продолжительность : 20 м.
Вид битрейта : Постоянный
Битрейт : 192 Кбит/сек
Каналы : 2 канала
Расположение каналов : Front: L R
Частота : 48,0 КГц
Битовая глубина : 16 бит
Метод сжатия : С потерями
Размер потока : 28,5 Мбайт (3%)
Аудио #5
Идентификатор : 189 (0xBD)-132 (0x84)
Формат : AC-3
Формат/Информация : Audio Coding 3
Профиль формата : Dolby Digital
Расширение режима : CM (complete main)
Параметр Endianness формата : Big
Режим смешивания : DVD-Video
Продолжительность : 20 м.
Вид битрейта : Постоянный
Битрейт : 224 Кбит/сек
Каналы : 2 канала
Расположение каналов : Front: L R
Частота : 48,0 КГц
Битовая глубина : 16 бит
Метод сжатия : С потерями
Размер потока : 33,2 Мбайт (3%)
Меню

Постеры

[/spoil er]

_________________
Показать сообщения:    

Текущее время: Сегодня 15:18

Часовой пояс: GMT



Вы не можете начинать темы
Вы не можете отвечать на сообщения
Вы не можете редактировать свои сообщения
Вы не можете удалять свои сообщения
Вы не можете голосовать в опросах
Вы не можете прикреплять файлы к сообщениям
Вы не можете скачивать файлы