Важное объявление!
У Нас Все раздачи мультитрекерные, при нуле пиров в релизах, можете смело вставать на закачку!
 
Автор Сообщение

HUNTER

Стаж:
4 года 7 месяцев
Сообщений:
61590

Репутация: 101

[+] [-]
Вне форума [Профиль] [ЛС]

Дон Кихот / Donkey Xote-
Год выпуска: 2007
Страна: Испания, Италия
Жанр: мультфильм, семейный
Продолжительность: 01:23:47
Перевод: Профессиональный (полное дублирование) R5
Субтитры: нет-Режиссер: Хосе Посо / Jose Pozo
Роли озвучивали: Андреу Буэнафуэнте, Давид Фернандес, Соня Феррер, Хосе Луис Хиль, Джорди Гонзалез, Санчо Грасия, Джо Льюис, Молли Малкольм, Роберт Патерсон, Джеймс Филлипс, Луис Посада
Описание: Мультфильм о похождениях знаменитого Дон Кихота и верного Санчо Панса, рассказанный от лица… их терпеливых рысаков! Надо ли говорить, что у ослика Санчо и благородного Росинанта взгляд на происходящее сильно отличается от знакомой всем канвы рассказа.-Релиз:
Автор: yaroslaigor
Качество: BDRip (источник: / Blu-ray / 1080i)
Формат: AVI
Видео: 720x304 (2.37:1), 25 fps, XviD build 65 ~2024 kbps avg, 0.37 bit/pixel
Аудио: 48 kHz, AC3 Dolby Digital, 3/2 (L,C,R,l,r) + LFE ch, ~448.00 kbps avg
Размер: 1487.78 Mb (1/3 DVD-R)
Скачать: Семпл-

Кадры из фильма


-

Mi

Формат : AVI
Формат/Информация : Audio Video Interleave
Размер файла : 1,45 Гбайт
Продолжительность : 1 ч. 23 м.
Общий поток : 2483 Кбит/сек
Название фильма : Дон Кихот / Donkey Xote (2007) BDRip
Режиссёр : yaroslaigor
Жанр : мультфильм, семейный
Программа кодирования : VirtualDubMod 1.5.10.2 (build 2542/release)
Примечание : 01.05.2015
Видео
Идентификатор : 0
Формат : MPEG-4 Visual
Профиль формата : Advanced Simple@L5
Параметр BVOP формата : 1
Параметр QPel формата : Нет
Параметр GMC формата : Без точки перехода
Параметр матрицы формата : Выборочная
Идентификатор кодека : XVID
Идентификатор кодека/Подсказка : XviD
Продолжительность : 1 ч. 23 м.
Битрейт : 2025 Кбит/сек
Ширина : 720 пикселей
Высота : 304 пикселя
Соотношение сторон : 2,35:1
Частота кадров : 25,000 кадров/сек
Цветовое пространство : YUV
Субдискретизация насыщенности : 4:2:0
Битовая глубина : 8 бит
Тип развёртки : Прогрессивная
Метод сжатия : С потерями
Бит/(Пиксели*Кадры) : 0.370
Размер потока : 1,19 Гбайт (82%)
Библиотека кодирования : XviD 65
Аудио
Идентификатор : 1
Формат : AC-3
Формат/Информация : Audio Coding 3
Расширение режима : CM (complete main)
Параметр Endianness формата : Big
Идентификатор кодека : 2000
Продолжительность : 1 ч. 23 м.
Вид битрейта : Постоянный
Битрейт : 448 Кбит/сек
Каналы : 6 каналов
Расположение каналов : Front: L C R, Side: L R, LFE
Частота : 48,0 КГц
Битовая глубина : 16 бит
Метод сжатия : С потерями
Размер потока : 268 Мбайт (18%)
Выравнивание : Разделение по промежуткам
Продолжительность промежутка : 40 мс. (1,00 видеокадр)
Время предзагрузки промежутка : 500 мс.
-

_________________
Показать сообщения:    

Текущее время: Сегодня 17:07

Часовой пояс: GMT



Вы не можете начинать темы
Вы не можете отвечать на сообщения
Вы не можете редактировать свои сообщения
Вы не можете удалять свои сообщения
Вы не можете голосовать в опросах
Вы не можете прикреплять файлы к сообщениям
Вы не можете скачивать файлы
Наши партнеры: интернет магазин Ивановского трикотажа textilla.ru