Важное объявление!
У Нас Все раздачи мультитрекерные, при нуле пиров в релизах, можете смело вставать на закачку!
 
Автор Сообщение

HUNTER

Стаж:
4 года 11 месяцев
Сообщений:
66009

Репутация: 101

[+] [-]
Вне форума [Профиль] [ЛС]



-

  • Год производства: 2007

  • Страна: Италия, Испания

  • Жанр: Комедия, приключения, мультфильм

  • Продолжительность: 01:27:25

  • Перевод: Профессиональный (полное дублирование)

  • Субтитры: Отсутствуют-
  • Режиссер: Хосе Позо / Jose Poso
    -
  • Описание: Что если приключение Дон Кихота было не таким, как нам всегда рассказывали? Пришло время Русио — самого авантюрного, смелого и хитроумного осла Кастильи — рассказать настоящую историю. Устав от созерцательного образа жизни, который, кажется, введут все в Ла Манче, Русио не колеблется ни секунды, когда появляется возможность окунуться в приключение: Рыцарь Полумесяца вызвал Кихота на беспрецедентную дуэль в Барселоне. Самая сложная задача — убедить Росинанта, коня, который не чтит свою родословную и предпочитает болтаться без дела вместо того, чтобы скакать по равнинам Кастильи. Еще более сложная задача — избежать всех опасностей, которые подстерегают их на пути в Барселону: шпионы-горностаи, фальшивые Дульсинеи, истеричные герцоги... и самую большую опасность из всех — таинственного Темного Рыцаря.Это не так просто быть героем в такие трудные времена... также как нелегко ослу быть конем, а петуху телохранителем... Или сумасшедшему быть рыцарем.Кроме как здесь. Здесь возможно все... Это и еще много чего! Смогут ли Русио и Росинант добраться до пункта назначения? Если да, то смогут ли они победить Рыцаря Полумесяца? В одной из деревень Ла Манчи начинается настоящее приключение!
    -
  • Качество видео: BDRip 1080p

  • Формат видео: mkv

  • Видео кодек: H264

  • Аудио кодек: AC3|DTS

  • Видео: 1920x816 (2.35:1), 23.976 fps, 12.6 Mbps, 0.335 bit/pixel

  • Аудио#1: 48 kHz, AC3 2 ch ~384 kbps avg - Дубляж

  • Аудио#2: 48 kHz, DTS 2 ch ~1536.00 kbps avg - Оригинал-
  • Автор рипа: falco
-

Доп. информация

Скриншоты

MediaInfo

Код: copyText_writeLink('this.parentNode.parentNode.nextSibling.nextSibling');
General
Unique ID : 249481939832612605629171894627556165561 (0xBBB0794E484A16FC8FE461E3D31C87B9)
Complete name : D:\Торенты\Donkey.Xote.2007.BDRip.1080p.falco.mkv
Format : Matroska
Format version : Version 4 / Version 2
File size : 8.89 GiB
Duration : 1h 27mn
Overall bit rate mode : Variable
Overall bit rate : 14.6 Mbps
Encoded date : UTC 2013-08-09 08:49:37
Writing application : mkvmerge v6.3.0 ('You can't stop me!') built on Jun 28 2013 20:09:41
Writing library : libebml v1.3.0 + libmatroska v1.4.0
Video
ID : 1
Format : AVC
Format/Info : Advanced Video Codec
Format profile : [url=mailto:High@L4.1]High@L4.1[/url]
Format settings, CABAC : Yes
Format settings, ReFrames : 3 frames
Codec ID : V_MPEG4/ISO/AVC
Duration : 1h 27mn
Bit rate : 12.6 Mbps
Width : 1 920 pixels
Height : 816 pixels
Display aspect ratio : 2.35:1
Frame rate : 23.976 fps
Color space : YUV
Chroma subsampling : 4:2:0
Bit depth : 8 bits
Scan type : Progressive
Bits/(Pixel*Frame) : 0.335
Stream size : 7.53 GiB (85%)
Writing library : x264 core 65 r999kMod cc51047
Encoding settings : cabac=1 / ref=3 / deblock=1:0:0 / analyse=0x3:0x133 / me=umh / subme=6 / psy_rd=1.0:0.0 / mixed_ref=1 / me_range=16 / chroma_me=1 / trellis=1 / 8x8dct=1 / cqm=0 / deadzone=21,11 / chroma_qp_offset=-2 / threads=4 / thread_queue=4 / nr=0 / decimate=1 / mbaff=0 / bframes=3 / b_pyramid=1 / b_adapt=1 / b_bias=0 / direct=3 / wpredb=1 / keyint=250 / keyint_min=25 / scenecut=40(pre) / rc=2pass / bitrate=12591 / ratetol=1.0 / qcomp=0.60 / qpmin=10 / qpmax=51 / qpstep=4 / cplxblur=20.0 / qblur=0.5 / ip_ratio=1.40 / pb_ratio=1.30 / aq=1:1.00
Default : Yes
Forced : No
Audio #1
ID : 2
Format : AC-3
Format/Info : Audio Coding 3
Mode extension : CM (complete main)
Format settings, Endianness : Big
Codec ID : A_AC3
Duration : 1h 27mn
Bit rate mode : Constant
Bit rate : 384 Kbps
Channel(s) : 2 channels
Channel positions : Front: L R
Sampling rate : 48.0 KHz
Bit depth : 16 bits
Compression mode : Lossy
Stream size : 240 MiB (3%)
Title : Профессиональный (полное дублирование)
Language : Russian
Default : Yes
Forced : No
Audio #2
ID : 3
Format : DTS
Format/Info : Digital Theater Systems
Format profile : MA / Core
Codec ID : A_DTS
Duration : 1h 27mn
Bit rate mode : Variable
Bit rate : 1 558 Kbps / 1 510 Kbps
Channel(s) : 2 channels
Channel positions : Front: L R
Sampling rate : 48.0 KHz
Bit depth : 16 bits
Compression mode : Lossless / Lossy
Title : Оригинал
Language : English
Default : No
Forced : No

_________________
Показать сообщения:    

Текущее время: Сегодня 15:21

Часовой пояс: GMT



Вы не можете начинать темы
Вы не можете отвечать на сообщения
Вы не можете редактировать свои сообщения
Вы не можете удалять свои сообщения
Вы не можете голосовать в опросах
Вы не можете прикреплять файлы к сообщениям
Вы не можете скачивать файлы