Дон Верден / Don Verdean (Джаред Хесс / Jared Hess) [2015, США, комедия, BDRip 720p] DVO (Ozz) + Original Eng + Sub (Rus, Eng) :: Ивановский Торрент трекер
Важное объявление!
У Нас Все раздачи мультитрекерные, при нуле пиров в релизах, можете смело вставать на закачку!
 
Автор Сообщение

HUNTER

Стаж:
4 года 11 месяцев
Сообщений:
66051

Репутация: 101

[+] [-]
Вне форума [Профиль] [ЛС]

Дон Верден / Don Verdean-
Страна: США
Жанр: комедия
Год выпуска: 2015
Продолжительность: 01:36:04
Перевод: Профессиональный (двухголосый закадровый) Ozz
Cубтитры: русские, английские
Оригинальная аудиодорожка: английский-Режиссер: Джаред Хесс / Jared Hess
В ролях: Сэм Рокуэлл, Эми Райан, Уилл Форте, Дэнни МакБрайд, Джемейн Клемент, Стив Парк, Лесли Бибб, Скай Элобар, П.Дж. Будуск, Янив Мойал-Описание: Библейский археолог Дон Вердиан нанят пастором местной церкви, для поиска реликвий, способствующих обретению веры, в Святой Земле. Но после бесплодных экспедиций он вынужден подойти к вопросу творчески в этой комедии веры и мошенничества.-Доп. информация: Озвучка: Алексей Серёгин и Ирина Воронова. Перевод: Максим Чайкин- -Тип релиза: BDRip 720p (исх. [url=viewtopic.php?t=5193139]BDRemux[/url])
Контейнер: MKV
Видео: x.264, 1280x720, 7956 Kbps, 23.976 fps, 0.360 bpf
Аудио 1: AC3, 2.0 ch, 192 kbps, 48000 Hz - DVO (Ozz)
Аудио 2: DTS, 5.1 ch, 1509 kbps, 48000 Hz - ENG
Формат субтитров: softsub (SRT) - русские (Максим Чайкин), английские-

Скриншоты


Резервные скриншоты



-

MediaInfo

Format : Matroska
Format version : Version 2
File size : 6.61 GiB
Duration : 1h 36mn
Overall bit rate : 9 853 Kbps
Movie name : Дон Верден / Don Verdean (2015) BDRip 720p [RG Torrents.ru]
Encoded date : UTC 2016-03-20 11:59:03
Writing application : mkvmerge v7.8.0 ('River Man') 32bit built on Mar 27 2015 16:18:02
Writing library : libebml v1.3.1 + libmatroska v1.4.2
Cover : Yes
Video
ID : 1
Format : AVC
Format/Info : Advanced Video Codec
Format profile : High@L4.1
Format settings, CABAC : Yes
Format settings, ReFrames : 9 frames
Codec ID : V_MPEG4/ISO/AVC
Duration : 1h 36mn
Bit rate : 7 956 Kbps
Width : 1 280 pixels
Height : 720 pixels
Display aspect ratio : 16:9
Frame rate mode : Constant
Frame rate : 23.976 fps
Color space : YUV
Chroma subsampling : 4:2:0
Bit depth : 8 bits
Scan type : Progressive
Bits/(Pixel*Frame) : 0.360
Stream size : 5.34 GiB (81%)
Title : RG Torrents.ru
Writing library : x264 core 148 r2665 a01e339
Encoding settings : cabac=1 / ref=9 / deblock=1:-3:-3 / analyse=0x3:0x133 / me=umh / subme=10 / psy=1 / psy_rd=1.00:0.00 / mixed_ref=1 / me_range=32 / chroma_me=1 / trellis=2 / 8x8dct=1 / cqm=0 / deadzone=21,11 / fast_pskip=0 / chroma_qp_offset=-2 / threads=6 / lookahead_threads=1 / sliced_threads=0 / nr=0 / decimate=1 / interlaced=0 / bluray_compat=0 / constrained_intra=0 / bframes=8 / b_pyramid=2 / b_adapt=2 / b_bias=0 / direct=1 / weightb=1 / open_gop=0 / weightp=2 / keyint=240 / keyint_min=23 / scenecut=40 / intra_refresh=0 / rc_lookahead=60 / rc=crf / mbtree=0 / crf=17.6 / qcomp=0.60 / qpmin=0 / qpmax=69 / qpstep=4 / vbv_maxrate=50000 / vbv_bufsize=62500 / crf_max=0.0 / nal_hrd=none / filler=0 / ip_ratio=1.30 / pb_ratio=1.25 / aq=1:1.00
Language : English
Default : Yes
Forced : No
Audio #1
ID : 2
Format : AC-3
Format/Info : Audio Coding 3
Mode extension : CM (complete main)
Format settings, Endianness : Big
Codec ID : A_AC3
Duration : 1h 36mn
Bit rate mode : Constant
Bit rate : 192 Kbps
Channel(s) : 2 channels
Channel positions : Front: L R
Sampling rate : 48.0 KHz
Bit depth : 16 bits
Compression mode : Lossy
Stream size : 132 MiB (2%)
Title : DVO - Ozz TV
Language : Russian
Default : Yes
Forced : No
Audio #2
ID : 3
Format : DTS
Format/Info : Digital Theater Systems
Mode : 16
Format settings, Endianness : Big
Codec ID : A_DTS
Duration : 1h 36mn
Bit rate mode : Constant
Bit rate : 1 509 Kbps
Channel(s) : 6 channels
Channel positions : Front: L C R, Side: L R, LFE
Sampling rate : 48.0 KHz
Bit depth : 24 bits
Compression mode : Lossy
Stream size : 1.01 GiB (15%)
Title : ENG - Original
Language : English
Default : No
Forced : No
Text #1
ID : 4
Format : UTF-8
Codec ID : S_TEXT/UTF8
Codec ID/Info : UTF-8 Plain Text
Title : Максим Чайкин
Language : Russian
Default : No
Forced : No
Text #2
ID : 5
Format : UTF-8
Codec ID : S_TEXT/UTF8
Codec ID/Info : UTF-8 Plain Text
Language : English
Default : No
Forced : No
Menu
00:00:00.000 : en:Chapter 01
00:07:31.868 : en:Chapter 02
00:14:50.222 : en:Chapter 03
00:21:57.733 : en:Chapter 04
00:29:46.284 : en:Chapter 05
00:34:47.293 : en:Chapter 06
00:40:30.386 : en:Chapter 07
00:48:41.710 : en:Chapter 08
01:00:22.869 : en:Chapter 09
01:11:24.697 : en:Chapter 10
01:21:44.649 : en:Chapter 11
01:32:26.374 : en:Chapter 12

_________________
Показать сообщения:    

Текущее время: Сегодня 00:21

Часовой пояс: GMT



Вы не можете начинать темы
Вы не можете отвечать на сообщения
Вы не можете редактировать свои сообщения
Вы не можете удалять свои сообщения
Вы не можете голосовать в опросах
Вы не можете прикреплять файлы к сообщениям
Вы не можете скачивать файлы