Ивановский Торрент трекер
Яндекс.Погода
 

[Цитировать]
HUNTER


Дом | Home
«Контакт неизбежен»
- Страна: США
Жанр: фантастика, фэнтези, приключения
Продолжительность: 01:33:48
Год выпуска: 2015
Перевод: Профессиональный (дублированный)
Русские субтитры: Rus, Ukr, Eng
Режиссёр: Тим Джонсон / Tim Johnson
Роли озвучивали: Джим Парсонс, Рианна, Стив Мартин, Дженнифер Лопез, Мэтт Джонс, Брайан Степанек, Эйприл Стрюбинг, Стивен Кеарин, Лиза Стюарт, Эйприл Уинчелл-ОписаниеЗахватив Землю, раса пришельцев Був тут же начинает заниматься её благоустройством и реорганизацией. «Не стоит благодарности!» — заявляют они землянам, собранным на время в отдельных резервациях. Находчивая и рисковая девочка по имени Дар, чудом сбежавшая от пришельцев, встречает на своем пути самого раздражающе-оптимистичного Бува по имени О, отвергнутого своими инопланетными собратьями. Этой, казалось бы, несовместимой парочке предстоит спасти нашу планету. Хорошо, что у них есть летающий автомобиль!-
«Дом» (Home, также имел рабочее название Happy Smekday!) — компьютерный анимационный фильм киностудии Dreamworks Pictures, основанный на детской книге 2007 года Адама Рекса The True Meaning of Smekday
Релиз:

Сэмпл

IMDb: 6.80 (23 780)
Качество: BDRip 1080p Home.2015.COMPLETE.BLURAY-XORBiTANT
Формат: MKV
Видео: AVC 13.5 Mbps 1920 x 1042 (1.843) at 23.976 fps
Аудио: DTS 768 Kbps 6 channels, 48.0 KHz Rus Blu-ray EUR
Аудио 2: AC-3 448 Kbps 6 channels, 48.0 KHz Ukr Blu-ray EUR
Аудио 3: DTS ES 1509 Kbps 6 channels, 48.0 KH, 48.0 KHz Eng
Субтитры: Rus. Ukr, Eng SRT

MI | Log

Log
x264 [info]: frame I:1284 Avg QP:13.61 size:280091
x264 [info]: frame P:41083 Avg QP:14.51 size:118678
x264 [info]: frame B:92574 Avg QP:17.01 size: 48404
x264 [info]: consecutive B-frames: 7.0% 6.6% 21.0% 32.3% 17.1% 14.8% 0.9% 0.1% 0.2%
x264 [info]: mb I I16..4: 6.5% 77.9% 15.6%
x264 [info]: mb P I16..4: 5.7% 32.4% 3.9% P16..4: 20.8% 22.6% 8.4% 1.8% 0.2% skip: 4.2%
x264 [info]: mb B I16..4: 2.5% 7.7% 0.7% B16..8: 32.0% 20.1% 3.5% direct: 7.2% skip:26.3% L0:39.1% L1:43.6% BI:17.3%
x264 [info]: 8x8 transform intra:74.6% inter:56.9%
x264 [info]: direct mvs spatial:100.0% temporal:0.0%
x264 [info]: coded y,uvDC,uvAC intra: 73.5% 91.5% 77.7% inter: 23.6% 32.9% 11.7%
x264 [info]: i16 v,h,dc,p: 53% 9% 4% 33%
x264 [info]: i8 v,h,dc,ddl,ddr,vr,hd,vl,hu: 11% 13% 18% 8% 9% 9% 10% 10% 13%
x264 [info]: i4 v,h,dc,ddl,ddr,vr,hd,vl,hu: 19% 11% 20% 6% 10% 9% 9% 7% 8%
x264 [info]: i8c dc,h,v,p: 44% 24% 16% 15%
x264 [info]: Weighted P-Frames: Y:2.3% UV:2.0%
x264 [info]: ref P L0: 57.7% 8.5% 22.3% 8.9% 2.5% 0.0%
x264 [info]: ref B L0: 86.0% 11.3% 2.7%
x264 [info]: ref B L1: 93.1% 6.9%
x264 [info]: kb/s:13810.94
x264 [total]: encoded 134941 frames, 4.43 fps, 13810.94 kb/s, duration 8:27:24.93
Format : Matroska
Format version : Version 4 / Version 2
File size : 10.8 GiB
Duration : 1h 33mn
Overall bit rate : 16.5 Mbps
Encoded date : UTC 2015-07-10 17:52:47
Writing application : mkvmerge v6.7.0 ('Back to the Ground') 32bit built on Jan 8 2014 15:03:17
Writing library : libebml v1.3.0 + libmatroska v1.4.1
Video
ID : 1
Format : AVC
Format/Info : Advanced Video Codec
Format profile : High@L4.1
Format settings, CABAC : Yes
Format settings, ReFrames : 4 frames
Codec ID : V_MPEG4/ISO/AVC
Duration : 1h 33mn
Bit rate : 13.5 Mbps
Width : 1 920 pixels
Height : 1 042 pixels
Display aspect ratio : 1.85:1
Frame rate mode : Constant
Frame rate : 23.976 fps
Color space : YUV
Chroma subsampling : 4:2:0
Bit depth : 8 bits
Scan type : Progressive
Bits/(Pixel*Frame) : 0.281
Stream size : 8.84 GiB (82%)
Title : Home (2015) [rutracker.org] 1080p
Writing library : x264 core 146 r2538kMod 121396c
Encoding settings : cabac=1 / ref=4 / deblock=1:-3:-2 / analyse=0x3:0x133 / me=umh / subme=11 / psy=1 / fade_compensate=0.00 / psy_rd=1.00:0.05 / mixed_ref=1 / me_range=32 / chroma_me=1 / trellis=2 / 8x8dct=1 / cqm=0 / deadzone=21,11 / fast_pskip=0 / chroma_qp_offset=-3 / threads=12 / lookahead_threads=2 / sliced_threads=0 / nr=0 / decimate=1 / interlaced=0 / bluray_compat=0 / constrained_intra=0 / fgo=0 / bframes=8 / b_pyramid=2 / b_adapt=2 / b_bias=0 / direct=3 / weightb=1 / open_gop=0 / weightp=2 / keyint=250 / keyint_min=23 / scenecut=40 / intra_refresh=0 / rc_lookahead=80 / rc=crf / mbtree=0 / crf=17.1000 / qcomp=0.60 / qpmin=0 / qpmax=69 / qpstep=4 / vbv_maxrate=50000 / vbv_bufsize=62500 / crf_max=0.0 / nal_hrd=none / filler=0 / ip_ratio=1.40 / pb_ratio=1.30 / aq=3:0.90
Language : English
Default : Yes
Forced : No
Audio #1
ID : 2
Format : DTS
Format/Info : Digital Theater Systems
Mode : 16
Format settings, Endianness : Big
Codec ID : A_DTS
Duration : 1h 33mn
Bit rate mode : Constant
Bit rate : 768 Kbps
Channel(s) : 6 channels
Channel positions : Front: L C R, Side: L R, LFE
Sampling rate : 48.0 KHz
Bit depth : 24 bits
Compression mode : Lossy
Stream size : 515 MiB (5%)
Title : DUB [Blu-ray EUR]
Language : Russian
Default : Yes
Forced : No
Audio #2
ID : 3
Format : AC-3
Format/Info : Audio Coding 3
Mode extension : CM (complete main)
Format settings, Endianness : Big
Codec ID : A_AC3
Duration : 1h 33mn
Bit rate mode : Constant
Bit rate : 448 Kbps
Channel(s) : 6 channels
Channel positions : Front: L C R, Side: L R, LFE
Sampling rate : 48.0 KHz
Compression mode : Lossy
Stream size : 301 MiB (3%)
Title : DUB [Blu-ray EUR]
Language : Ukrainian
Default : No
Forced : No
Audio #3
ID : 4
Format : DTS
Format/Info : Digital Theater Systems
Format profile : ES
Mode : 16
Format settings, Endianness : Big
Codec ID : A_DTS
Duration : 1h 33mn
Bit rate mode : Constant
Bit rate : 1 509 Kbps
Channel(s) : 6 channels
Channel positions : Front: L C R, Side: L R, LFE
Sampling rate : 48.0 KHz
Bit depth : 24 bits
Compression mode : Lossy
Stream size : 1 012 MiB (9%)
Title : Original
Language : English
Default : No
Forced : No
Text #1
ID : 5
Format : UTF-8
Codec ID : S_TEXT/UTF8
Codec ID/Info : UTF-8 Plain Text
Title : Full
Language : Russian
Default : No
Forced : No
Text #2
ID : 6
Format : UTF-8
Codec ID : S_TEXT/UTF8
Codec ID/Info : UTF-8 Plain Text
Title : Full
Language : Ukrainian
Default : No
Forced : No
Text #3
ID : 7
Format : UTF-8
Codec ID : S_TEXT/UTF8
Codec ID/Info : UTF-8 Plain Text
Title : Full
Language : English
Default : No
Forced : No
Menu
00:00:00.000 : en:00:00:00.000
00:03:43.723 : en:00:03:43.723
00:07:28.406 : en:00:07:28.406
00:11:19.470 : en:00:11:19.470
00:14:26.949 : en:00:14:26.949
00:17:58.953 : en:00:17:58.953
00:21:05.639 : en:00:21:05.639
00:25:18.851 : en:00:25:18.851
00:29:07.079 : en:00:29:07.079
00:33:14.618 : en:00:33:14.618
00:38:58.962 : en:00:38:58.962
00:41:31.155 : en:00:41:31.155
00:44:27.540 : en:00:44:27.540
00:46:50.933 : en:00:46:50.933
00:51:34.758 : en:00:51:34.758
00:56:25.924 : en:00:56:25.924
01:00:43.682 : en:01:00:43.682
01:03:53.496 : en:01:03:53.496
01:06:57.722 : en:01:06:57.722
01:09:44.180 : en:01:09:44.180
01:13:55.765 : en:01:13:55.765
01:18:11.770 : en:01:18:11.770
01:21:55.369 : en:01:21:55.369
01:23:56.031 : en:01:23:56.031

Скриншоты | Rip vs Source





Rip vs Source
Rip

Source
Сравнение 1 2 с этим релизом


Показать сообщения:    

Текущее время: 11-Дек 15:30

Часовой пояс: UTC ± 0


Вы не можете начинать темы
Вы не можете отвечать на сообщения
Вы не можете редактировать свои сообщения
Вы не можете удалять свои сообщения
Вы не можете голосовать в опросах
Вы не можете прикреплять файлы к сообщениям
Вы не можете скачивать файлы

!ВНИМАНИЕ!
Сайт не предоставляет электронные версии произведений, а занимается лишь коллекционированием и каталогизацией ссылок, присылаемых и публикуемых на форуме нашими читателями. Если вы являетесь правообладателем какого-либо представленного материала и не желаете, чтобы ссылка на него находилась в нашем каталоге, свяжитесь с нами, и мы незамедлительно удалим ее. Файлы для обмена на трекере предоставлены пользователями сайта, и администрация не несет ответственности за их содержание. Просьба не заливать файлы, защищенные авторскими правами, а также файлы нелегального содержания!