Важное объявление!
У Нас Все раздачи мультитрекерные, при нуле пиров в релизах, можете смело вставать на закачку!
Статистика раздачи
Размер:     |    Зарегистрирован:     |    Скачан:     |   
Нет
 
     
 
 
Автор Сообщение

HUNTER

Стаж:
5 лет
Сообщений:
68082

Репутация: 101

[+] [-]
Вне форума [Профиль] [ЛС]

Дом ужасов доктора Террора / Dr. Terror's House of Horrors
Страна: Великобритания
Жанр: мистика, ужасы, триллер
Год выпуска: 1965
Продолжительность: 1:37:40
Перевод: Профессиональный (многоголосый закадровый)
Cубтитры: английские
Оригинальная аудиодорожка: английский
Режиссер: Фредди Фрэнсис / Freddie Francis
В ролях: Питер Кушинг, Кристофер Ли, Нил МакКалум, Алан Фриман, Рой Касл, Майкл Гофф, Дональд Сазерленд, Майкл Макнил, Бернард Ли
Описание: Пять человек садятся в поезд. Вскоре к ним присоединяется еще один и предлагает попутчикам погадать им на картах Таро. Вскоре один из них находит у себя в замке оборотня, жена другого оказывается вампиром, дом третьего захватывает гигантское растение...
Сэмпл
Тип релиза: BDRip 1080p
Контейнер: MKV
Видео: 1920x816 (2.35:1), 24.000 fps, MPEG-4 AVC, 8968 kbps
Аудио: Русский AC3 / 48.0 KHz / 2 ch. / 224 kbps / Петербург 5-й канал
Аудио 2: Английский AC3 / 48.0 KHz / 2 ch. / 640 Kbps
Формат субтитров: softsub (SRT)

MediaInfo

General
Unique ID : 191352742511147979534501628244562209389 (0x8FF5329AC8292A30AB18E058A1E6EA6D)
Complete name : Dr. Terror's House of Horrors.mkv
Format : Matroska
Format version : Version 4 / Version 2
File size : 6.71 GiB
Duration : 1h 37mn
Overall bit rate : 9 833 Kbps
Encoded date : UTC 2015-12-09 17:05:43
Writing application : mkvmerge v7.7.0 ('Six Voices') 64bit built on Feb 28 2015 23:39:33
Writing library : libebml v1.3.1 + libmatroska v1.4.2
_STATISTICS_WRITING_APP : mkvmerge v7.7.0 ('Six Voices') 64bit built on Feb 28 2015 23:39:33
_STATISTICS_WRITING_DATE_UTC : 2015-12-09 17:05:43
_STATISTICS_TAGS : BPS DURATION NUMBER_OF_FRAMES NUMBER_OF_BYTES
DURATION : 01:35:03.833000000
NUMBER_OF_FRAMES : 775
NUMBER_OF_BYTES : 28350
Video
ID : 1
Format : AVC
Format/Info : Advanced Video Codec
Format profile : High@L4.1
Format settings, CABAC : Yes
Format settings, ReFrames : 5 frames
Codec ID : V_MPEG4/ISO/AVC
Duration : 1h 37mn
Bit rate : 8 968 Kbps
Width : 1 920 pixels
Height : 816 pixels
Display aspect ratio : 2.35:1
Frame rate mode : Constant
Frame rate : 24.000 fps
Color space : YUV
Chroma subsampling : 4:2:0
Bit depth : 8 bits
Scan type : Progressive
Bits/(Pixel*Frame) : 0.239
Stream size : 5.99 GiB (89%)
Writing library : x264 core 148 r2638 7599210
Encoding settings : cabac=1 / ref=5 / deblock=1:0:0 / analyse=0x3:0x133 / me=umh / subme=7 / psy=1 / psy_rd=1.00:0.00 / mixed_ref=1 / me_range=16 / chroma_me=1 / trellis=1 / 8x8dct=1 / cqm=0 / deadzone=21,11 / fast_pskip=0 / chroma_qp_offset=-2 / threads=12 / lookahead_threads=2 / sliced_threads=0 / nr=0 / decimate=1 / interlaced=0 / bluray_compat=0 / constrained_intra=0 / bframes=3 / b_pyramid=2 / b_adapt=2 / b_bias=0 / direct=3 / weightb=1 / open_gop=0 / weightp=2 / keyint=250 / keyint_min=24 / scenecut=40 / intra_refresh=0 / rc_lookahead=50 / rc=2pass / mbtree=1 / bitrate=8968 / ratetol=1.0 / qcomp=0.60 / qpmin=0 / qpmax=69 / qpstep=4 / cplxblur=20.0 / qblur=0.5 / ip_ratio=1.40 / aq=1:1.00
Language : English
Default : Yes
Forced : No
_STATISTICS_WRITING_APP : mkvmerge v7.7.0 ('Six Voices') 64bit built on Feb 28 2015 23:39:33
_STATISTICS_WRITING_DATE_UTC : 2015-12-09 17:05:43
_STATISTICS_TAGS : BPS DURATION NUMBER_OF_FRAMES NUMBER_OF_BYTES
DURATION : 01:37:39.959000000
NUMBER_OF_FRAMES : 140639
NUMBER_OF_BYTES : 6568401687
Audio #1
ID : 2
Format : AC-3
Format/Info : Audio Coding 3
Mode extension : CM (complete main)
Format settings, Endianness : Big
Codec ID : A_AC3
Duration : 1h 37mn
Bit rate mode : Constant
Bit rate : 224 Kbps
Channel(s) : 2 channels
Channel positions : Front: L R
Sampling rate : 48.0 KHz
Compression mode : Lossy
Stream size : 156 MiB (2%)
Title : Петербург 5-й канал
Language : Russian
Default : Yes
Forced : No
Audio #2
ID : 3
Format : AC-3
Format/Info : Audio Coding 3
Mode extension : CM (complete main)
Format settings, Endianness : Big
Codec ID : A_AC3
Duration : 1h 37mn
Bit rate mode : Constant
Bit rate : 640 Kbps
Channel(s) : 2 channels
Channel positions : Front: L R
Sampling rate : 48.0 KHz
Compression mode : Lossy
Stream size : 447 MiB (7%)
Language : English
Default : No
Forced : No
Text
ID : 4
Format : UTF-8
Codec ID : S_TEXT/UTF8
Codec ID/Info : UTF-8 Plain Text
Language : English
Default : No
Forced : No
Menu
00:00:00.000 : en:00:00:00.000
00:09:40.000 : en:00:09:40.000
00:29:16.458 : en:00:29:16.458
00:42:38.542 : en:00:42:38.542
01:03:30.833 : en:01:03:30.833
01:19:14.917 : en:01:19:14.917
01:34:12.292 : en:01:34:12.292

_________________
Показать сообщения:    

Текущее время: Сегодня 11:57

Часовой пояс: GMT



Вы не можете начинать темы
Вы не можете отвечать на сообщения
Вы не можете редактировать свои сообщения
Вы не можете удалять свои сообщения
Вы не можете голосовать в опросах
Вы не можете прикреплять файлы к сообщениям
Вы не можете скачивать файлы