[Цитировать]
HUNTER

Дом секс-придурков / Куда тебе деться без недостатков / Без греха не вытащишь и рыбку из пруда / Dove vai se il vizietto non ce l'hai? / Nadie es perfecto
Страна: Италия
Жанр: комедия, sexploitation
Год выпуска: 1979
Продолжительность: 1.23.21
Перевод: Одноголосый закадровый Переводчик не опознан
Cубтитры: нет
Оригинальная аудиодорожка: итальянский
Режиссер: Марино Джиролами / Marino Girolami
В ролях: Ренцо Монтаньяни / Renzo Montagnani, Альваро Витали / Alvaro Vitali, Паола Сенаторе / Paola Senatore
Описание: Один из главных героев фильма — частный детектив Диоген Коломбо. У него хорошая работа, но иногда она его просто достаёт. А особенно подробности, в которые любят его посвящать люди, обращающиеся к нему за помощью. Например одна синьорина показывала как именно и в какой последовательности срывал с неё одежду преступник-насильник.
У детектива есть помощник — Арнольдо, сексуально озабоченный парень, который почему-то любит переодеваться в женщин. Однажды к Диогену обращается замужняя женщина, которая хочет узнать с кем именно изменяет ей её муж. Выяснить это непросто, но детектив с помощником решают внедриться в их дом. Диоген стал управляющим в поместье, а Арнольд переоделся в повариху, и теперь он — Карлотта Ангуло.
Доп. информация: Русская звуковая дорожка предоставлена rotorovv большое спасибо.
При пересборе двд были использованы программы:
PgcDemux - разделение компонентов диска на файлы
Muxman - мультиплексирование и авторинг DVD
VobBlanker - реавторинг DVD

Скрин завершения проекта

Бонусы: Трейлеры, фильмографии
Сэмпл: http://sendfile.su/1094344
Тип релиза: DVD9 (Custom)
Контейнер: DVD-Video
Видео: PAL 4:3 (720x576) VBR
Аудио: Russian (Dolby AC3, 192 Кбит/сек, 2 ch)
Аудио 2: Italian (Dolby AC3, 192 Кбит/сек, 2 ch)

DVDInfo

Size: 7.44 Gb ( 7 801 202 KBytes ) - DVD-9
Enabled regions: 1, 2, 3, 4, 5, 6, 7, 8
VTS_01 :
Play Length: 01:23:21+01:23:34
Video: PAL 4:3 (720x576) VBR
Audio:
Russian (Dolby AC3, 2 ch)
Espanol (Dolby AC3, 2 ch)
Subtitles:
Espanol
VTS_02 :
Play Length: 00:00:20
Video: PAL 4:3 (720x576) VBR
Audio:
Espanol (Dolby AC3, 6 ch)
VTS_03 :
Play Length: 00:00:20
Video: PAL 4:3 (720x576) VBR
Audio:
Espanol (Dolby AC3, 6 ch)
VTS_04 :
Play Length: 00:00:45
Video: PAL 4:3 (720x576) VBR
Audio:
Espanol (Dolby AC3, 2 ch)
VTS_05 :
Play Length: 00:01:28
Video: PAL 4:3 (720x576) VBR
Audio:
Espanol (Dolby AC3, 6 ch)
Menu Video:
PAL 4:3 (720x576) VBR
Menu Audio:
Not specified (Dolby AC3, 2 ch)
Menu Subtitles:
Not specified
Menu Espanol Language Unit :
Root Menu
Chapter (PTT) Menu

MediaInfo

Общее
Полное имя : M:\Dove vai se il vizietto non ce l'hai_1979\VIDEO_TS\VTS_01_1.VOB
Формат : MPEG-PS
Размер файла : 1024 Мбайт
Продолжительность : 23 м.
Режим общего битрейта : Переменный
Общий поток : 6020 Кбит/сек
Видео
Идентификатор : 224 (0xE0)
Формат : MPEG Video
Версия формата : Version 2
Профиль формата : Main@Main
Параметр BVOP формата : Да
Параметр матрицы формата : Выборочная
Параметр GOP формата : M=3, N=12
Продолжительность : 23 м.
Вид битрейта : Переменный
Битрейт : 5516 Кбит/сек
Максимальный битрейт : 9600 Кбит/сек
Ширина : 720 пикселей
Высота : 576 пикселей
Соотношение сторон : 4:3
Частота кадров : 25,000 кадров/сек
Стандарт вещания : PAL
Цветовое пространство : YUV
Субдискретизация насыщенности : 4:2:0
Битовая глубина : 8 бит
Тип развёртки : Чересстрочная
Порядок развёртки : Верхнее поле первое
Метод сжатия : С потерями
Бит/(Пиксели*Кадры) : 0.532
Размер потока : 938 Мбайт (92%)
Аудио #1
Идентификатор : 189 (0xBD)-128 (0x80)
Формат : AC-3
Формат/Информация : Audio Coding 3
Расширение режима : CM (complete main)
Параметр Endianness формата : Big
Режим смешивания : DVD-Video
Продолжительность : 23 м.
Вид битрейта : Постоянный
Битрейт : 192 Кбит/сек
Каналы : 2 канала
Расположение каналов : Front: L R
Частота : 48,0 КГц
Битовая глубина : 16 бит
Метод сжатия : С потерями
Задержка видео : -80 мс.
Размер потока : 32,7 Мбайт (3%)
Аудио #2
Идентификатор : 189 (0xBD)-129 (0x81)
Формат : AC-3
Формат/Информация : Audio Coding 3
Расширение режима : CM (complete main)
Параметр Endianness формата : Big
Режим смешивания : DVD-Video
Продолжительность : 23 м.
Вид битрейта : Постоянный
Битрейт : 192 Кбит/сек
Каналы : 2 канала
Расположение каналов : Front: L R
Частота : 48,0 КГц
Битовая глубина : 16 бит
Метод сжатия : С потерями
Задержка видео : -80 мс.
Размер потока : 32,7 Мбайт (3%)
Текст
Идентификатор : 189 (0xBD)-32 (0x20)
Формат : RLE
Формат/Информация : Run-length encoding
Режим смешивания : DVD-Video
Задержка видео : 6 с. 280 мс.
Меню

Постеры обложка и блин

Скриншоты меню

0 человек читают эту тему: 0 пользователей, 0 скрытых пользователей, 0 гостей

Показать сообщения:    

Текущее время: 22-Авг 15:03

Часовой пояс: UTC ± 0


Вы не можете начинать темы
Вы не можете отвечать на сообщения
Вы не можете редактировать свои сообщения
Вы не можете удалять свои сообщения
Вы не можете голосовать в опросах
Вы не можете прикреплять файлы к сообщениям
Вы не можете скачивать файлы

!ВНИМАНИЕ!
Сайт не предоставляет электронные версии произведений, а занимается лишь коллекционированием и каталогизацией ссылок, присылаемых и публикуемых на форуме нашими читателями. Если вы являетесь правообладателем какого-либо представленного материала и не желаете, чтобы ссылка на него находилась в нашем каталоге, свяжитесь с нами, и мы незамедлительно удалим ее. Файлы для обмена на трекере предоставлены пользователями сайта, и администрация не несет ответственности за их содержание. Просьба не заливать файлы, защищенные авторскими правами, а также файлы нелегального содержания!