Ивановский Торрент трекер
Яндекс.Погода
 

[Цитировать]
HUNTER

Дом из бамбука / House of Bamboo
-Страна: США
Жанр: драма, криминал, фильм-нуар
Год выпуска: 1955
Продолжительность: 01:42:33-Перевод: Профессиональный (многоголосый закадровый)
Cубтитры: английские-Оригинальная аудиодорожка: английский-Режиссер: Сэмюэл Фуллер / Samuel Fuller-В ролях: Роберт Райан, Роберт Стэк, Ширли Ямагучи, Кэмерон Митчелл, Брэд Декстер, Сессю Хаякава, Бифф Эллиот, Сандро Гильо, Элько Ханабуса, Клиффорд Араширо, Сэнди Азека, Гарри Кэри мл., Сэмюэл Фуллер, Рейко Хаякава,-Описание:
Действие происходит в Японии, где совершено дерзкое нападение на поезд, перевозивший боеприпасы для армии США. Эдди Спэньер, бывший военнослужащий, под прикрытием прибывает в Токио с целью расследовать это преступление. Он входит в доверие к Сэнди Доусону, американцу, имевшему отношение к военным операциям, а ныне крупному преступному авторитету...-Сэмпл: Скачать-Тип релиза: BDRip 720p
Контейнер: MKV-Видео: 1 280x504 (2.540); 7151 Kbps; 23.976 fps;
Аудио 1: Russian; AC3; 48.0 KHz; 2ch; 192 Kbps
Аудио 2: English; AC3; 48.0 KHz; 6ch; 640 Kbps
Аудио 2: English; AAC; 48.0 KHz; 2ch; 64 Kbps Commentary
Аудио 2: English; AAC; 48.0 KHz; 2ch; 64 Kbps Commentary

MediaInfo

Format : Matroska
Format version : Version 4 / Version 2
File size : 5.84 GiB
Duration : 1h 42mn
Overall bit rate : 8 117 Kbps
Encoded date : UTC 2016-05-23 13:16:23
Writing application : mkvmerge v8.3.0 ('Over the Horizon') 64bit
Writing library : libebml v1.3.1 + libmatroska v1.4.2
Attachements : poster.jpg
DURATION : 01:42:32.800000000
NUMBER_OF_FRAMES : 192275
NUMBER_OF_BYTES : 147667200
_STATISTICS_WRITING_APP : mkvmerge v8.3.0 ('Over the Horizon') 64bit
_STATISTICS_WRITING_DATE_UT : 2016-05-23 13:16:23
_STATISTICS_TAGS : BPS DURATION NUMBER_OF_FRAMES NUMBER_OF_BYTES
Video
ID : 1
Format : AVC
Format/Info : Advanced Video Codec
Format profile : High@L4.1
Format settings, CABAC : Yes
Format settings, ReFrames : 12 frames
Codec ID : V_MPEG4/ISO/AVC
Duration : 1h 42mn
Width : 1 280 pixels
Height : 504 pixels
Display aspect ratio : 2.540
Frame rate mode : Constant
Frame rate : 23.976 fps
Color space : YUV
Chroma subsampling : 4:2:0
Bit depth : 8 bits
Scan type : Progressive
Writing library : x264 core 144 r0+2574 9abcd72 t_mod_Custom [8-bit@all X86_64]
Encoding settings : cabac=1 / ref=12 / deblock=1:-3:-3 / analyse=0x3:0x133 / me=umh / subme=10 / psy=1 / fade_compensate=0.00 / psy_rd=1.05:0.00 / mixed_ref=1 / me_range=48 / chroma_me=1 / trellis=2 / 8x8dct=1 / cqm=0 / deadzone=21,11 / fast_pskip=1 / chroma_qp_offset=-2 / threads=8 / lookahead_threads=1 / sliced_threads=0 / nr=0 / decimate=1 / interlaced=0 / bluray_compat=0 / constrained_intra=0 / fgo=0 / bframes=9 / b_pyramid=2 / b_adapt=2 / b_bias=0 / direct=3 / weightb=1 / open_gop=0 / weightp=2 / keyint=250 / keyint_min=23 / scenecut=40 / intra_refresh=0 / rc_lookahead=150 / rc=crf / mbtree=0 / crf=16.9000 / qcomp=0.65 / qpmin=0:0:0 / qpmax=69:69:69 / qpstep=4 / vbv_maxrate=50000 / vbv_bufsize=62500 / crf_max=0.0 / nal_hrd=none / filler=0 / ip_ratio=1.35 / pb_ratio=1.25 / aq=3:0.65 / aq-sensitivity=10.00 / aq-factor=1.00:1.00:1.00 / aq2=0 / aq3=0
Language : English
Default : Yes
Forced : No
DURATION : 01:42:32.647000000
NUMBER_OF_FRAMES : 147516
NUMBER_OF_BYTES : 5499765421
_STATISTICS_WRITING_APP : mkvmerge v8.3.0 ('Over the Horizon') 64bit
_STATISTICS_WRITING_DATE_UT : 2016-05-23 13:16:23
_STATISTICS_TAGS : BPS DURATION NUMBER_OF_FRAMES NUMBER_OF_BYTES
Audio #1
ID : 2
Format : AC-3
Format/Info : Audio Coding 3
Mode extension : CM (complete main)
Format settings, Endianness : Big
Codec ID : A_AC3
Duration : 1h 42mn
Bit rate mode : Constant
Bit rate : 192 Kbps
Channel(s) : 2 channels
Channel positions : Front: L R
Sampling rate : 48.0 KHz
Compression mode : Lossy
Stream size : 141 MiB (2%)
Title : MVO
Language : Russian
Default : Yes
Forced : No
Audio #2
ID : 3
Format : AC-3
Format/Info : Audio Coding 3
Mode extension : CM (complete main)
Format settings, Endianness : Big
Codec ID : A_AC3
Duration : 1h 42mn
Bit rate mode : Constant
Bit rate : 640 Kbps
Channel(s) : 6 channels
Channel positions : Front: L C R, Side: L R, LFE
Sampling rate : 48.0 KHz
Compression mode : Lossy
Stream size : 471 MiB (8%)
Language : English
Default : No
Forced : No
Audio #3
ID : 4
Format : AAC
Format/Info : Advanced Audio Codec
Format profile : LC
Codec ID : A_AAC
Duration : 1h 42mn
Channel(s) : 2 channels
Channel positions : Front: L R
Sampling rate : 48.0 KHz
Compression mode : Lossy
Delay relative to video : 20ms
Title : Commentary with Film Historians Nick Redman and Julie Kirgo
Language : English
Default : No
Forced : No
Audio #4
ID : 5
Format : AAC
Format/Info : Advanced Audio Codec
Format profile : LC
Codec ID : A_AAC
Duration : 1h 42mn
Channel(s) : 2 channels
Channel positions : Front: L R
Sampling rate : 48.0 KHz
Compression mode : Lossy
Delay relative to video : 20ms
Title : Commentary with Film Historians James Ursini and Alain Silver
Language : English
Default : No
Forced : No
Text
ID : 6
Format : UTF-8
Codec ID : S_TEXT/UTF8
Codec ID/Info : UTF-8 Plain Text
Language : English
Default : No
Forced : No
Menu
00:00:00.000 : en:Chapter 1
00:04:25.265 : en:Chapter 2
00:08:52.365 : en:Chapter 3
00:12:42.387 : en:Chapter 4
00:14:51.057 : en:Chapter 5
00:21:31.499 : en:Chapter 6
00:25:53.510 : en:Chapter 7
00:29:36.858 : en:Chapter 8
00:34:16.513 : en:Chapter 9
00:37:58.151 : en:Chapter 10
00:43:43.704 : en:Chapter 11
00:48:24.527 : en:Chapter 12
00:51:40.472 : en:Chapter 13
00:56:51.283 : en:Chapter 14
00:58:29.840 : en:Chapter 15
01:03:01.987 : en:Chapter 16
01:06:58.473 : en:Chapter 17
01:12:08.533 : en:Chapter 18
01:15:56.802 : en:Chapter 19
01:20:57.102 : en:Chapter 20
01:24:03.121 : en:Chapter 21
01:29:44.546 : en:Chapter 22
01:35:23.968 : en:Chapter 23
01:38:13.888 : en:Chapter 24

Скриншоты

Показать сообщения:    

Текущее время: 24-Окт 10:28

Часовой пояс: UTC - 1


Вы не можете начинать темы
Вы не можете отвечать на сообщения
Вы не можете редактировать свои сообщения
Вы не можете удалять свои сообщения
Вы не можете голосовать в опросах
Вы не можете прикреплять файлы к сообщениям
Вы не можете скачивать файлы

!ВНИМАНИЕ!
Сайт не предоставляет электронные версии произведений, а занимается лишь коллекционированием и каталогизацией ссылок, присылаемых и публикуемых на форуме нашими читателями. Если вы являетесь правообладателем какого-либо представленного материала и не желаете, чтобы ссылка на него находилась в нашем каталоге, свяжитесь с нами, и мы незамедлительно удалим ее. Файлы для обмена на трекере предоставлены пользователями сайта, и администрация не несет ответственности за их содержание. Просьба не заливать файлы, защищенные авторскими правами, а также файлы нелегального содержания!