Ивановский Торрент трекер
Яндекс.Погода
 

[Цитировать]
HUNTER

Дом злодеев. Мышиный дом / Mickey's House of Villains- Страна: США
Жанр: мультфильм, комедия, семейный
Год выпуска: 2001
Продолжительность: 01:08:02
Перевод: Профессиональный (полное дублирование)
Русские субтитры: Нет-Режиссер: Джэми Митчелл / Jamie Mitchell, Тони Крэйг / Tony Craig, Роберт Ганнавей / Robert Gannaway-Роли озвучивали: Уэйн Оллвэйн (Mickey Mouse, озвучка), Тони Ансельмо (Donald Duck, Huey, Dewey, Louie, озвучка), Джефф Беннетт (Salesman, (segment 'Mickey's Mechanical House'), озвучка), Сьюзан Блэйксли (Cruella De Vil, озвучка), Кори Бертон (Captain Hook, Chernabog, 'How to' рассказчик, Chief O'Hara, озвучка), Пэт Кэрролл (Ursula, озвучка), Джон Клиз (рассказчик, (segment 'Mickey's Mechanical House'), озвучка), Джим Каммингс (Big Bad Wolf, Kaa, Ed the Hyena, озвучка), Билл Фармер (Goofy, озвучка), Джон Фидлер (Piglet, озвучка), Джонатан Фриман (Jafar, озвучка), Мэтт Фрюэр (Panic, озвучка)-Роли дублировали: Максим Сергеев (Mickey Mouse), Константин Петров (Donald Duck), Снежина Копрова (Huey / Dewey / Louie), Елена Павловская (Cruella De Vil), Валерий Никитенко («How to» рассказчик), Валерий Кухарешин (Captain Hook; Panic; Iago), Алексей Гурьев (Chernabog; Pain), Михаил Вассербаум (Goofy), Станислав Концевич (Jafar; Hades), Сауле Искакова (Daisy Duck; Minnie Mouse), Наталья Данилова (The Fates; Hazel the Witch, (segment 'Trick or Treat'), хроника), Евгений Иванов (Mike)-Описание: Банда негодяев во главе с Джафаром пытается захватить домик Микки Мауса и превратить его в дом злодеев. Но верные друзья Микки - Дональд Дак, Гуффи, Плуто - как всегда рядом и готовы сражаться за торжество справедливости. Остановить и победить злодеев им помогают взаимовыручка, смекалка, чувство юмора и добрые сердца...-Дополнительная информация: Запись перевода "Нева-фильм" с телеканала СТС и его синхронизация с DVD - xfiles.-Рейтинг:
-Мировая премьера: 15 ноября 2001-Релиз: -Качество: DVDRip
Формат: AVI
Видео: 624x480 (1.30:1), 23.976 fps, XviD build 65 ~2380 kbps avg, 0.33 bit/pixel
Аудио 1: 48 kHz, AC3 Dolby Digital, 2/0 (L,R) ch, ~224 kbps - Rus "Нева-фильм"
Аудио 2: 48 kHz, AC3 Dolby Digital, 3/2 (L,C,R,l,r) + LFE ch, ~448 kbps - Eng
Субтитры: Отсутствуют
-MI
General
Complete name : C:\Users\Pc\Desktop\1111.avi
Format : AVI
Format/Info : Audio Video Interleave
File size : 1.46 GiB
Duration : 1h 8mn
Overall bit rate : 3 067 Kbps
Writing application : VirtualDubMod 1.5.10.3 | www.virtualdub-fr.org || (build 2550/release)
Writing library : VirtualDubMod build 2550/release
Video
ID : 0
Format : MPEG-4 Visual
Format profile : Advanced Simple@L5
Format settings, BVOP : 2
Format settings, QPel : No
Format settings, GMC : No warppoints
Format settings, Matrix : Custom
Codec ID : XVID
Codec ID/Hint : XviD
Duration : 1h 8mn
Bit rate : 2 381 Kbps
Width : 624 pixels
Height : 480 pixels
Display aspect ratio : 1.300
Frame rate : 23.976 fps
Color space : YUV
Chroma subsampling : 4:2:0
Bit depth : 8 bits
Scan type : Progressive
Compression mode : Lossy
Bits/(Pixel*Frame) : 0.332
Stream size : 1.13 GiB (78%)
Writing library : XviD 65
Audio #1
ID : 1
Format : AC-3
Format/Info : Audio Coding 3
Mode extension : CM (complete main)
Codec ID : 2000
Duration : 1h 8mn
Bit rate mode : Constant
Bit rate : 224 Kbps
Channel(s) : 2 channels
Channel positions : Front: L R
Sampling rate : 48.0 KHz
Bit depth : 16 bits
Compression mode : Lossy
Stream size : 109 MiB (7%)
Alignment : Split accross interleaves
Interleave, duration : 42 ms (1.00 video frame)
Interleave, preload duration : 500 ms
Audio #2
ID : 2
Format : AC-3
Format/Info : Audio Coding 3
Mode extension : CM (complete main)
Codec ID : 2000
Duration : 1h 8mn
Bit rate mode : Constant
Bit rate : 448 Kbps
Channel(s) : 6 channels
Channel positions : Front: L C R, Side: L R, LFE
Sampling rate : 48.0 KHz
Bit depth : 16 bits
Compression mode : Lossy
Stream size : 218 MiB (15%)
Alignment : Split accross interleaves
Interleave, duration : 42 ms (1.00 video frame)
Interleave, preload duration : 500 ms
Все раздачи мультфильма!


Показать сообщения:    

Текущее время: 18-Дек 18:44

Часовой пояс: UTC ± 0


Вы не можете начинать темы
Вы не можете отвечать на сообщения
Вы не можете редактировать свои сообщения
Вы не можете удалять свои сообщения
Вы не можете голосовать в опросах
Вы не можете прикреплять файлы к сообщениям
Вы не можете скачивать файлы

!ВНИМАНИЕ!
Сайт не предоставляет электронные версии произведений, а занимается лишь коллекционированием и каталогизацией ссылок, присылаемых и публикуемых на форуме нашими читателями. Если вы являетесь правообладателем какого-либо представленного материала и не желаете, чтобы ссылка на него находилась в нашем каталоге, свяжитесь с нами, и мы незамедлительно удалим ее. Файлы для обмена на трекере предоставлены пользователями сайта, и администрация не несет ответственности за их содержание. Просьба не заливать файлы, защищенные авторскими правами, а также файлы нелегального содержания!