Важное объявление!
У Нас Все раздачи мультитрекерные, при нуле пиров в релизах, можете смело вставать на закачку!
Статистика раздачи
Размер:     |    Зарегистрирован:     |    Скачан:     |   
Нет
 
     
 
 
Автор Сообщение

димитри37

Стаж:
4 года 4 месяца
Сообщений:
1236

Репутация: 127

[+] [-]
Вне форума [Профиль] [ЛС]

Дом дураков-
-Жанр: Драма, мелодрама, военный, музыка
Год выпуска: 2002
Продолжительность: 01:48:46
Режиссёр: Андрей Кончаловcкий
В ролях: Юлия Высоцкая, Евгений Миронов, Султан Исламов, Станислав Варки, Владас Багдонас, Елена Фомина, Брайан Адамс...--Описание: Где-то в Чечне стоит огороженная забором районная клиника для душевнобольных. Война грохочет вдали, но с каждым днем она все ближе и ближе. Однажды весь персонал во главе с доктором Ильичом исчезает, и больные наслаждаются полной свободой, переворачивая все вверх дном.
Внезапно появившийся чеченский отряд наводит «порядок», а на следующий день возвращаются российские войска. Чеченцы отступают, и в мир больных врывается безумие войны…

Качество видео: DVDRip
Формат видео: AVI
Исходник: DVD5 Спасибо chatkal
Видео: 704x384 (1.83:1), 23.976 fps, XviD MPEG-4 ~1519 kbps avg, 0.23 bit/pixel
Аудио: 48 kHz, AC3 Dolby Digital, 3/2 (L,C,R,l,r) + LFE ch, ~384 kbps-Золотой орел, 2003 год
Номинации (4):
Лучший фильм
Лучший режиссер (Андрей Кончаловский)
Лучшая женская роль (Юлия Высоцкая)
Лучшая мужская роль второго плана (Анатолий Адоскин)
Ника, 2003 год
Номинации (1):
Лучшая музыка
Венецианский кинофестиваль, 2002 год
Победитель (2):
Особый приз жюри
Премия Детского фонда ООН (UNICEF)
Номинации (1):
Золотой лев

MediaInfo

Общее
Полное имя : D:\My_Rips\Dom_durakov_2002_DVDRip.avi
Формат : AVI
Формат/Информация : Audio Video Interleave
Размер файла : 1,45 Гбайт
Продолжительность : 1 ч. 48 м.
Общий поток : 1913 Кбит/сек
Название фильма : Dom_durakov_2002_DVDRip
Программа кодирования : VirtualDubMod 1.5.10.3 | www.virtualdub-fr.org || (build 2550/release)
Видео
Идентификатор : 0
Формат : MPEG-4 Visual
Профиль формата : Advanced Simple@L5
Параметр BVOP формата : 2
Параметр QPel формата : Нет
Параметр GMC формата : Без точки перехода
Параметр матрицы формата : Выборочная
Режим смешивания : Сжатый битовый поток
Идентификатор кодека : XVID
Идентификатор кодека/Подсказка : XviD
Продолжительность : 1 ч. 48 м.
Битрейт : 1520 Кбит/сек
Ширина : 704 пикселя
Высота : 384 пикселя
Соотношение сторон : 16:9
Частота кадров : 23,976 кадра/сек
Цветовое пространство : YUV
Субдискретизация насыщенности : 4:2:0
Битовая глубина : 8 бит
Тип развёртки : Прогрессивная
Метод сжатия : С потерями
Бит/(Пиксели*Кадры) : 0.235
Размер потока : 1,16 Гбайт (79%)
Библиотека кодирования : XviD 1.2.1 (UTC 2008-12-04)
Аудио
Идентификатор : 1
Формат : AC-3
Формат/Информация : Audio Coding 3
Расширение режима : CM (complete main)
Идентификатор кодека : 2000
Продолжительность : 1 ч. 48 м.
Вид битрейта : Постоянный
Битрейт : 384 Кбит/сек
Каналы : 6 каналов
Расположение каналов : Front: L C R, Side: L R, LFE
Частота : 48,0 КГц
Битовая глубина : 16 бит
Метод сжатия : С потерями
Размер потока : 299 Мбайт (20%)
Выравнивание : Разделение по промежуткам
Продолжительность промежутка : 42 мс. (1,00 видеокадр)
Время предзагрузки промежутка : 500 мс.

Скриншоты

Показать сообщения:    

Текущее время: Сегодня 12:53

Часовой пояс: GMT



Вы не можете начинать темы
Вы не можете отвечать на сообщения
Вы не можете редактировать свои сообщения
Вы не можете удалять свои сообщения
Вы не можете голосовать в опросах
Вы не можете прикреплять файлы к сообщениям
Вы не можете скачивать файлы