Ивановский Торрент трекер
Яндекс.Погода
 

[Цитировать]
Vanya_o3

Дом в конце улицы House at the End of the Street Страна: США, Канада
Жанр: ужасы, триллер
Год выпуска: 2011
Продолжительность: 01:40:45-Перевод: Профессиональный (полное дублирование) R5-Cубтитры: русские
Оригинальная аудиодорожка: английский-Режиссер: Марк Тондерай / Mark Tonderai-В ролях-Дженнифер Лоуренс (Elissa), Макс Тириот (Ryan), Элизабет Шу (Sarah), Джил Беллоуз (Weaver), Ева Линк (Carrie Anne), Нолан Фанк (Tyler), Элли МакДональд (Jillian), Джордан Хэйес (Penn State Carrie Anne), Криста Бриджес (Mary Jacobson), Джеймс Томас (Ben Reynolds), Хейли Сисера (Caitlin), Крэйг Элдридж (Dan Gifford)-Описание-Переехав жить в небольшой провинциальный город, Сара и ее дочь еще не догадываются, что вскоре окажутся в эпицентре очень ужасной истории. Когда окажется, что вблизи живет серийный убийца…-Качество видео: BDRip -Контейнер: MKV-Видео: AVC, 1024x424 (2,40:1), ~2308 kbps, 23,976 fps, quality: 0.222
Аудио: AC-3, 384 kbps, 6ch, 48,0 KHz |Дубляж|
Аудио: AC-3, 384 kbps, 6ch, 48,0 KHz |Оригинал|
Формат субтитров: softsub (SRT)-

MediaInfo

х264

x264 [info]: frame I:1081 Avg QP:16.40 size: 79098
x264 [info]: frame P:32204 Avg QP:19.38 size: 21622
x264 [info]: frame B:111672 Avg QP:21.82 size: 8610
x264 [info]: consecutive B-frames: 3.6% 2.2% 7.4% 15.9% 14.4% 44.9% 5.3% 1.3% 2.4% 2.6%
x264 [info]: mb I I16..4: 24.2% 56.9% 18.9%
x264 [info]: mb P I16..4: 1.7% 9.5% 1.4% P16..4: 27.6% 30.4% 9.8% 4.2% 0.8% skip:14.6%
x264 [info]: mb B I16..4: 0.2% 1.0% 0.1% B16..8: 40.3% 18.1% 2.6% direct: 5.5% skip:32.2% L0:45.0% L1:46.1% BI: 8.8%
x264 [info]: 8x8 transform intra:72.2% inter:53.6%
x264 [info]: direct mvs spatial:98.0% temporal:2.0%
x264 [info]: coded y,uvDC,uvAC intra: 85.8% 79.4% 59.0% inter: 27.8% 18.9% 7.6%
x264 [info]: i16 v,h,dc,p: 33% 6% 20% 40%
x264 [info]: i8 v,h,dc,ddl,ddr,vr,hd,vl,hu: 13% 7% 11% 9% 12% 13% 11% 12% 12%
x264 [info]: i4 v,h,dc,ddl,ddr,vr,hd,vl,hu: 14% 7% 12% 8% 13% 13% 11% 10% 11%
x264 [info]: i8c dc,h,v,p: 43% 20% 18% 18%
x264 [info]: Weighted P-Frames: Y:4.6% UV:2.1%
x264 [info]: ref P L0: 42.2% 8.1% 20.8% 6.7% 6.4% 3.8% 4.0% 1.9% 2.4% 1.6% 1.7% 0.3% 0.0%
x264 [info]: ref B L0: 69.5% 12.9% 6.2% 3.3% 2.8% 1.8% 1.5% 0.9% 0.9% 0.2%
x264 [info]: ref B L1: 91.5% 8.5%
x264 [info]: kb/s:2306.73
x264 [total]: encoded 144957 frames, 2.53 fps, 2306.73 kb/s
Полное имя : H:\House at the End of the Street_BDRip_cw.mkv
Формат : Matroska
Версия формата : Version 2
Размер файла : 2,17 Гбайт
Продолжительность : 1 ч. 40 м.
Общий поток : 3077 Кбит/сек
Название фильма : Дом в конце улицы / House at the End of the Street
Дата кодирования : UTC 2013-03-28 20:42:00
Программа кодирования : mkvmerge v5.5.0 ('Healer') built on Apr 24 2012 23:47:03
Библиотека кодирования : libebml v1.2.3 + libmatroska v1.3.0
Видео
Идентификатор : 1
Формат : AVC
Формат/Информация : Advanced Video Codec
Профиль формата : High@L4.1
Параметр CABAC формата : Да
Параметр ReFrames формата : 11 кадров
Идентификатор кодека : V_MPEG4/ISO/AVC
Продолжительность : 1 ч. 40 м.
Битрейт : 2308 Кбит/сек
Ширина : 1024 пикселя
Высота : 424 пикселя
Соотношение сторон : 2,40:1
Частота кадров : 23,976 кадра/сек
Цветовое пространство : YUV
Субдискретизация насыщенности : 4:2:0
Битовая глубина : 8 бит
Тип развёртки : Прогрессивная
Бит/(Пиксели*Кадры) : 0.222
Размер потока : 1,58 Гбайт (73%)
Заголовок : House at the End of the Street
Библиотека кодирования : x264 core 119 r2106 07efeb4
Настройки программы : cabac=1 / ref=11 / deblock=1:-3:-3 / analyse=0x3:0x133 / me=umh / subme=11 / psy=1 / psy_rd=1.00:0.35 / mixed_ref=1 / me_range=48 / chroma_me=1 / trellis=2 / 8x8dct=1 / cqm=0 / deadzone=21,11 / fast_pskip=1 / chroma_qp_offset=-4 / threads=4 / sliced_threads=0 / nr=0 / decimate=0 / interlaced=0 / bluray_compat=0 / constrained_intra=0 / bframes=9 / b_pyramid=2 / b_adapt=2 / b_bias=0 / direct=3 / weightb=1 / open_gop=0 / weightp=2 / keyint=250 / keyint_min=23 / scenecut=40 / intra_refresh=0 / rc_lookahead=50 / rc=2pass / mbtree=1 / bitrate=2308 / ratetol=1.0 / qcomp=0.60 / qpmin=0 / qpmax=69 / qpstep=4 / cplxblur=20.0 / qblur=0.5 / ip_ratio=1.40 / aq=1:1.00
Язык : English
Default : Да
Forced : Нет
Аудио #1
Идентификатор : 2
Формат : AC-3
Формат/Информация : Audio Coding 3
Расширение режима : CM (complete main)
Параметр Endianness формата : Big
Идентификатор кодека : A_AC3
Продолжительность : 1 ч. 40 м.
Вид битрейта : Постоянный
Битрейт : 384 Кбит/сек
Каналы : 6 каналов
Расположение каналов : Front: L C R, Side: L R, LFE
Частота : 48,0 КГц
Битовая глубина : 16 бит
Метод сжатия : С потерями
Размер потока : 277 Мбайт (12%)
Заголовок : Dub
Язык : Russian
Default : Да
Forced : Нет
Аудио #2
Идентификатор : 3
Формат : AC-3
Формат/Информация : Audio Coding 3
Расширение режима : CM (complete main)
Параметр Endianness формата : Big
Идентификатор кодека : A_AC3
Продолжительность : 1 ч. 40 м.
Вид битрейта : Постоянный
Битрейт : 384 Кбит/сек
Каналы : 6 каналов
Расположение каналов : Front: L C R, Side: L R, LFE
Частота : 48,0 КГц
Битовая глубина : 16 бит
Метод сжатия : С потерями
Размер потока : 277 Мбайт (12%)
Заголовок : Original
Язык : English
Default : Нет
Forced : Нет
Текст
Идентификатор : 4
Формат : UTF-8
Идентификатор кодека : S_TEXT/UTF8
Идентификатор кодека/Информация : UTF-8 Plain Text
Язык : Russian
Default : Да
Forced : Нет

Скриншоты

Рип с Русские субтитры взяты с DVD9.
Показать сообщения:    

Текущее время: 25-Сен 14:05

Часовой пояс: UTC - 1


Вы не можете начинать темы
Вы не можете отвечать на сообщения
Вы не можете редактировать свои сообщения
Вы не можете удалять свои сообщения
Вы не можете голосовать в опросах
Вы не можете прикреплять файлы к сообщениям
Вы не можете скачивать файлы

!ВНИМАНИЕ!
Сайт не предоставляет электронные версии произведений, а занимается лишь коллекционированием и каталогизацией ссылок, присылаемых и публикуемых на форуме нашими читателями. Если вы являетесь правообладателем какого-либо представленного материала и не желаете, чтобы ссылка на него находилась в нашем каталоге, свяжитесь с нами, и мы незамедлительно удалим ее. Файлы для обмена на трекере предоставлены пользователями сайта, и администрация не несет ответственности за их содержание. Просьба не заливать файлы, защищенные авторскими правами, а также файлы нелегального содержания!