Важное объявление!
У Нас Все раздачи мультитрекерные, при нуле пиров в релизах, можете смело вставать на закачку!
 
Автор Сообщение

HUNTER

Стаж:
4 года 7 месяцев
Сообщений:
61614

Репутация: 101

[+] [-]
Вне форума [Профиль] [ЛС]

Домашнее видео / Sex Tape«Сними, но удали»
Страна: США
Жанр: комедия
Год выпуска: 2014
релиз на DVD: 20 ноября 2014, «CP Дистрибуция»
релиз на Blu-Ray: 20 ноября 2014, «CP Дистрибуция»
Продолжительность: 01:30:44
Перевод: Профессиональный (дублированный)
Cубтитры: English, Arabic, Bulgarian, Horvatski, Czech(Ceske), Estonian, Greek, Hebrew, Hindi, Magyar, Islenska, Latvian, Lithuanian, Polish, Portugues, Romanian, Serbian, Slovak, Slovenian, Turkish, Russian
Режиссер: Джейк Кэздан / Jake Kasdan
В ролях: Кэмерон Диаз, Джейсон Сигел, Роб Кордри, Элли Кемпер, Роб Лоу, Нат Факсон,, Нэнси Ленехан, Жизелль Эйзенберг, Харрисон Хольцер, Себастьян Хеджес Томас
Роли дублировали актеры: Татьяна Шитова, Пётр Иващенко, Илья Исаев, Дарья Фролова, Илья Бледный
Описание: Семейная пара, оставшись на одну ночь без детей, решает повеселиться и записать пикантное видео со своим участием. На следующее утро они обнаруживают, что видео видели не только они…

На диске: перевод - отсутствует
- Ловя момент
- Познакомьтесь с Хэнком Розенбаумом
Меню: есть, на русском
Тип релиза: DVD9 R5
Контейнер: DVD-Video
Видео кодек: MPEG2
Аудио кодек: AC3
Видео: PAL 16:9 (720x576) VBR Auto Letterboxed ~ 8036.63 kbps avg
Аудио: English (Dolby AC3, 6 ch, 448 kbps)
Аудио: Czech(Ceske) (Dolby AC3, 6 ch, 384 kbps)
Аудио: Magyar (Dolby AC3, 6 ch, 384 kbps)
Аудио: Polish (Dolby AC3, 2 ch, kbps)
Аудио: Russian (Dolby AC3, 6 ch, 384 kbps)
Аудио: Turkish (Dolby AC3, 6 ch, 384 kbps)

DVDInfo

Title: SEX.TAPE.2014.DVD9.NiP
Size: 5.85 Gb ( 6 134 150,00 KBytes ) - DVD-9
Enabled regions: 1, 2, 3, 4, 5, 6, 7, 8
VTS_01 :
Play Length: 01:30:44
Video: PAL 16:9 (720x576) VBR, Auto Letterboxed
Audio:
English (Dolby AC3, 6 ch)
Czech(Ceske) (Dolby AC3, 6 ch)
Magyar (Dolby AC3, 6 ch)
Polish (Dolby AC3, 2 ch)
Russian (Dolby AC3, 6 ch)
Turkish (Dolby AC3, 6 ch)
Subtitles:
English
Arabic
Bulgarian
Hrvatski
Czech(Ceske)
Estonian
Greek
Hebrew
Hindi
Magyar
Islenska
Latvian
Lithuanian
Polish
Portugues
Romanian
Serbian
Slovak
Slovenian
Turkish
Russian
VTS_02 :
Play Length: 00:05:34+00:02:21+00:00:00+00:00:00+00:00:00+00:00:00+00:00:00+00:00:00+00:00:00+00:00:00+{00:00:00}+{00:00:00}
Video: PAL 16:9 (720x576) VBR, Auto Letterboxed
Audio:
English (Dolby AC3, 2 ch)
Subtitles:
English
VTS_03 :
Play Length: 00:00:00+00:00:00+00:00:00+00:00:00+00:00:00+00:00:00
Video: PAL 16:9 (720x576) VBR, Auto Letterboxed
VTS_04 :
Play Length: 00:00:00+00:00:00+00:00:00+00:00:00+00:00:00+00:00:00+00:00:00+00:00:00+00:00:00
Video: PAL 16:9 (720x576) VBR, Auto Letterboxed
VTS_05 :
Play Length: 00:00:00+00:00:00+00:00:00+00:00:00+00:00:00+00:00:00+00:00:00+00:00:00+00:00:00
Video: PAL 16:9 (720x576) VBR, Auto Letterboxed
VTS_06 :
Play Length: 00:00:00+00:00:00+00:00:00+00:00:00
Video: PAL 16:9 (720x576) VBR, Auto Letterboxed
VTS_07 :
Play Length: 00:00:00+00:00:00+00:00:00+00:00:00
Video: PAL 16:9 (720x576) VBR, Auto Letterboxed
VTS_08 :
Play Length: 00:00:00+00:00:00+00:00:00+00:00:00+00:00:00+00:00:00+00:00:00+00:00:00
Video: PAL 16:9 (720x576) VBR, Auto Letterboxed
VTS_09 :
Play Length: 00:00:01+00:00:00+00:00:00
Video: PAL 16:9 (720x576) VBR, Auto Letterboxed
VTS_10 :
Play Length: 00:00:01+00:00:00+00:00:00+00:00:00+00:00:00
Video: PAL 4:3 (720x576) VBR
VTS_11 :
Play Length: 00:00:00+{00:00:00}+{00:00:00}
Video: PAL 16:9 (720x576) VBR, Auto Letterboxed
VTS_12 :
Play Length: 00:00:00+00:00:10+00:00:10+00:00:12+00:00:10+00:00:08+00:00:10+00:00:10+{00:00:00}+{00:00:10}+{00:00:10}+{00:00:12}+{00:00:10}+{00:00:08}+{00:00:09}+{00:00:10}+{00:00:00}+00:00:10+00:00:10+00:00:05+00:00:10+00:00:10+00:00:10+00:00:10+00:00:10+00:00:05+00:00:10+00:00:10+00:00:10+00:00:10+00:00:08+00:00:05+{00:00:10}+00:00:05+00:00:10+00:00:05+00:00:10+00:00:10+00:00:00+{00:00:10}
Video: PAL 16:9 (720x576) VBR, Auto Letterboxed
Audio:
Not specified (Dolby AC3, 2 ch)
VTS_13 :
Play Length: 00:00:00+00:00:12+00:00:00
Video: PAL 4:3 (720x576) VBR
VTS_14 :
Play Length: 00:00:00+00:00:05+00:00:05+00:00:05+00:00:05+00:00:05+00:00:05+00:00:05+00:00:05+00:00:05+00:00:05+00:00:05+00:00:05+00:00:05+00:00:05+00:00:05+00:00:05+00:00:05+00:00:05+00:00:05+00:00:05+00:00:05+00:00:05+00:00:05+00:00:05+00:00:05+00:00:05+00:00:05+00:00:00
Video: PAL 16:9 (720x576) VBR, Auto Letterboxed
Audio:
Not specified (Dolby AC3, 2 ch)
VTS_15 :
Play Length: 00:00:00
Video: PAL 16:9 (720x576) VBR, Auto Letterboxed

MediaInfo

Общее
Полное имя : I:\SEX.TAPE.2014.DVD9.NiP\VIDEO_TS\VTS_01_3.VOB
Формат : MPEG-PS
Размер файла : 1024 Мбайт
Продолжительность : 16 м.
Режим общего битрейта : Переменный
Общий поток : 8465 Кбит/сек
Видео
Идентификатор : 224 (0xE0)
Формат : MPEG Video
Версия формата : Version 2
Профиль формата : Main@Main
Параметр BVOP формата : Да
Параметр матрицы формата : Выборочная
Параметр GOP формата : Variable
Продолжительность : 16 м.
Вид битрейта : Переменный
Битрейт : 6121 Кбит/сек
Максимальный битрейт : 9800 Кбит/сек
Ширина : 720 пикселей
Высота : 576 пикселей
Соотношение сторон : 16:9
Частота кадров : 25,000 кадров/сек
Стандарт вещания : PAL
Цветовое пространство : YUV
Субдискретизация насыщенности : 4:2:0
Битовая глубина : 8 бит
Тип развёртки : Прогрессивная
Порядок развёртки : Верхнее поле первое
Метод сжатия : С потерями
Бит/(Пиксели*Кадры) : 0.590
Временной код первого кадра : 01:35:26:07
Оригинал временного кода : Group of pictures header
Размер потока : 740 Мбайт (72%)
Аудио #1
Идентификатор : 189 (0xBD)-128 (0x80)
Формат : AC-3
Формат/Информация : Audio Coding 3
Расширение режима : CM (complete main)
Параметр Endianness формата : Big
Режим смешивания : DVD-Video
Продолжительность : 16 м.
Вид битрейта : Постоянный
Битрейт : 448 Кбит/сек
Каналы : 6 каналов
Расположение каналов : Front: L C R, Side: L R, LFE
Частота : 48,0 КГц
Битовая глубина : 16 бит
Метод сжатия : С потерями
Задержка видео : -360 мс.
Размер потока : 54,2 Мбайт (5%)
Аудио #2
Идентификатор : 189 (0xBD)-129 (0x81)
Формат : AC-3
Формат/Информация : Audio Coding 3
Расширение режима : CM (complete main)
Параметр Endianness формата : Big
Режим смешивания : DVD-Video
Продолжительность : 16 м.
Вид битрейта : Постоянный
Битрейт : 384 Кбит/сек
Каналы : 6 каналов
Расположение каналов : Front: L C R, Side: L R, LFE
Частота : 48,0 КГц
Битовая глубина : 16 бит
Метод сжатия : С потерями
Задержка видео : -328 мс.
Размер потока : 46,5 Мбайт (5%)
Аудио #3
Идентификатор : 189 (0xBD)-130 (0x82)
Формат : AC-3
Формат/Информация : Audio Coding 3
Расширение режима : CM (complete main)
Параметр Endianness формата : Big
Режим смешивания : DVD-Video
Продолжительность : 16 м.
Вид битрейта : Постоянный
Битрейт : 384 Кбит/сек
Каналы : 6 каналов
Расположение каналов : Front: L C R, Side: L R, LFE
Частота : 48,0 КГц
Битовая глубина : 16 бит
Метод сжатия : С потерями
Задержка видео : -328 мс.
Размер потока : 46,5 Мбайт (5%)
Аудио #4
Идентификатор : 189 (0xBD)-131 (0x83)
Формат : AC-3
Формат/Информация : Audio Coding 3
Профиль формата : Dolby Digital
Расширение режима : CM (complete main)
Параметр Endianness формата : Big
Режим смешивания : DVD-Video
Продолжительность : 16 м.
Вид битрейта : Постоянный
Битрейт : 192 Кбит/сек
Каналы : 2 канала
Расположение каналов : Front: L R
Частота : 48,0 КГц
Битовая глубина : 16 бит
Метод сжатия : С потерями
Задержка видео : -328 мс.
Размер потока : 23,2 Мбайт (2%)
Аудио #5
Идентификатор : 189 (0xBD)-132 (0x84)
Формат : AC-3
Формат/Информация : Audio Coding 3
Расширение режима : CM (complete main)
Параметр Endianness формата : Big
Режим смешивания : DVD-Video
Продолжительность : 16 м.
Вид битрейта : Постоянный
Битрейт : 384 Кбит/сек
Каналы : 6 каналов
Расположение каналов : Front: L C R, Side: L R, LFE
Частота : 48,0 КГц
Битовая глубина : 16 бит
Метод сжатия : С потерями
Задержка видео : -328 мс.
Размер потока : 46,5 Мбайт (5%)
Аудио #6
Идентификатор : 189 (0xBD)-133 (0x85)
Формат : AC-3
Формат/Информация : Audio Coding 3
Расширение режима : CM (complete main)
Параметр Endianness формата : Big
Режим смешивания : DVD-Video
Продолжительность : 16 м.
Вид битрейта : Постоянный
Битрейт : 384 Кбит/сек
Каналы : 6 каналов
Расположение каналов : Front: L C R, Side: L R, LFE
Частота : 48,0 КГц
Битовая глубина : 16 бит
Метод сжатия : С потерями
Задержка видео : -328 мс.
Размер потока : 46,5 Мбайт (5%)
Текст #1
Идентификатор : 189 (0xBD)-32 (0x20)
Формат : RLE
Формат/Информация : Run-length encoding
Режим смешивания : DVD-Video
Продолжительность : 16 м.
Задержка видео : 2 с. 0 мс.
Текст #2
Идентификатор : 189 (0xBD)-33 (0x21)
Формат : RLE
Формат/Информация : Run-length encoding
Режим смешивания : DVD-Video
Продолжительность : 16 м.
Задержка видео : 2 с. 0 мс.
Текст #3
Идентификатор : 189 (0xBD)-34 (0x22)
Формат : RLE
Формат/Информация : Run-length encoding
Режим смешивания : DVD-Video
Продолжительность : 16 м.
Задержка видео : 2 с. 40 мс.
Текст #4
Идентификатор : 189 (0xBD)-35 (0x23)
Формат : RLE
Формат/Информация : Run-length encoding
Режим смешивания : DVD-Video
Продолжительность : 16 м.
Задержка видео : 2 с. 40 мс.
Текст #5
Идентификатор : 189 (0xBD)-36 (0x24)
Формат : RLE
Формат/Информация : Run-length encoding
Режим смешивания : DVD-Video
Продолжительность : 16 м.
Задержка видео : 2 с. 40 мс.
Текст #6
Идентификатор : 189 (0xBD)-37 (0x25)
Формат : RLE
Формат/Информация : Run-length encoding
Режим смешивания : DVD-Video
Продолжительность : 16 м.
Задержка видео : 2 с. 0 мс.
Текст #7
Идентификатор : 189 (0xBD)-38 (0x26)
Формат : RLE
Формат/Информация : Run-length encoding
Режим смешивания : DVD-Video
Продолжительность : 16 м.
Задержка видео : 2 с. 40 мс.
Текст #8
Идентификатор : 189 (0xBD)-39 (0x27)
Формат : RLE
Формат/Информация : Run-length encoding
Режим смешивания : DVD-Video
Продолжительность : 16 м.
Задержка видео : 2 с. 40 мс.
Текст #9
Идентификатор : 189 (0xBD)-40 (0x28)
Формат : RLE
Формат/Информация : Run-length encoding
Режим смешивания : DVD-Video
Продолжительность : 16 м.
Задержка видео : 2 с. 0 мс.
Текст #10
Идентификатор : 189 (0xBD)-41 (0x29)
Формат : RLE
Формат/Информация : Run-length encoding
Режим смешивания : DVD-Video
Продолжительность : 16 м.
Задержка видео : 2 с. 0 мс.
Текст #11
Идентификатор : 189 (0xBD)-42 (0x2A)
Формат : RLE
Формат/Информация : Run-length encoding
Режим смешивания : DVD-Video
Продолжительность : 16 м.
Задержка видео : 2 с. 80 мс.
Текст #12
Идентификатор : 189 (0xBD)-43 (0x2B)
Формат : RLE
Формат/Информация : Run-length encoding
Режим смешивания : DVD-Video
Продолжительность : 16 м.
Задержка видео : 2 с. 120 мс.
Текст #13
Идентификатор : 189 (0xBD)-44 (0x2C)
Формат : RLE
Формат/Информация : Run-length encoding
Режим смешивания : DVD-Video
Продолжительность : 16 м.
Задержка видео : 2 с. 40 мс.
Текст #14
Идентификатор : 189 (0xBD)-45 (0x2D)
Формат : RLE
Формат/Информация : Run-length encoding
Режим смешивания : DVD-Video
Продолжительность : 16 м.
Задержка видео : 2 с. 120 мс.
Текст #15
Идентификатор : 189 (0xBD)-46 (0x2E)
Формат : RLE
Формат/Информация : Run-length encoding
Режим смешивания : DVD-Video
Продолжительность : 16 м.
Задержка видео : 2 с. 80 мс.
Текст #16
Идентификатор : 189 (0xBD)-47 (0x2F)
Формат : RLE
Формат/Информация : Run-length encoding
Режим смешивания : DVD-Video
Продолжительность : 16 м.
Задержка видео : 2 с. 120 мс.
Текст #17
Идентификатор : 189 (0xBD)-48 (0x30)
Формат : RLE
Формат/Информация : Run-length encoding
Режим смешивания : DVD-Video
Продолжительность : 16 м.
Задержка видео : 2 с. 120 мс.
Текст #18
Идентификатор : 189 (0xBD)-49 (0x31)
Формат : RLE
Формат/Информация : Run-length encoding
Режим смешивания : DVD-Video
Задержка видео : 2 с. 160 мс.
Текст #19
Идентификатор : 189 (0xBD)-50 (0x32)
Формат : RLE
Формат/Информация : Run-length encoding
Режим смешивания : DVD-Video
Продолжительность : 16 м.
Задержка видео : 1 с. 520 мс.
Текст #20
Идентификатор : 189 (0xBD)-51 (0x33)
Формат : RLE
Формат/Информация : Run-length encoding
Режим смешивания : DVD-Video
Продолжительность : 16 м.
Задержка видео : 2 с. 120 мс.
Меню

Скриншоты меню

Скриншоты


_________________
Показать сообщения:    

Текущее время: Сегодня 10:57

Часовой пояс: GMT



Вы не можете начинать темы
Вы не можете отвечать на сообщения
Вы не можете редактировать свои сообщения
Вы не можете удалять свои сообщения
Вы не можете голосовать в опросах
Вы не можете прикреплять файлы к сообщениям
Вы не можете скачивать файлы
Наши партнеры: интернет магазин Ивановского трикотажа textilla.ru