Ивановский Торрент трекер
Яндекс.Погода
 

[Цитировать]
HUNTER

Долина Папоротников: Последний Тропический Лес / FernGully: The Last Rainforest
Страна: США, Австралия
Жанр: мультфильм, фэнтези, приключения, семейный
Продолжительность: 01:15:52
Год выпуска: 1992
Перевод: Профессиональный (многоголосый закадровый) Первый канал
Русские субтитры: нет
Режиссёр: Билл Кройер / Bill Kroyer
Роли озвучивали: нет информации
В ролях: Тим Карри, Саманта Мэтис, Кристиан Слэйтер, Джонатан Уорд, Робин Уильямс, Грейс Забриски, Джеффри Блейк, Роберт Пасторелли, Чич Марин, Томми Чонг
Описание: Хексус — это злой дух. Его задача — причинять боль и страдания. Он появился из раскаленного ядра Земли и принялся уничтожать сказочно красивый тропический лес, населенный забавными мистическими существами. Только объединившись и обратив свои мольбы к магическим силам природы, жителям леса удалось заточить Хексуса в одно из деревьев. Но скоро зверушки опять сталкиваются со смертельной опасностью, на сей раз исходящей со стороны людей, занимающихся вырубкой лесов. Своими мощными бульдозерами люди сносят подкорень вековые деревья, не подозревая о том, что в одном из них своего часа дожидается мощнейшая безжалостная сила, несущая смерть всему живому. Но наши маленькие герои проявляют чудеса смекалки и с юмором расправляются со всеми своими обидчиками.
Семпл: https://yadi.sk/i/UDrPpzatjzKzg
Качество: BDRip Источник
Формат: AVI
Видео: 720x288 (2.50:1), 23.976 fps, XviD build 50 ~2045 kbps avg, 0.41 bit/pixel
Аудио: 48 kHz, AC3 Dolby Digital, 2/0 (L,R) ch, ~192.00 kbps avg
Субтитры: отсутствуют

Подробные технические данные

GeneralComplete name : C:\Users\User\Desktop\Долина папоротников.aviFormat : AVIFormat/Info : Audio Video InterleaveFile size : 1.36 GiBDuration : 1h 15mnOverall bit rate : 2 564 KbpsMovie name : FernGully: The Last Rainforest (1992)Director : Bill KroyerWriting application : VirtualDubMod 1.5.10.2 (build 2540/release)Writing library : VirtualDubMod build 2540/releaseComment : BDRip / xfiles / РГ Мультфильмы / rutracker.org
VideoID : 0Format : MPEG-4 VisualFormat profile : Advanced Simple@L5Format settings, BVOP : 2Format settings, QPel : NoFormat settings, GMC : No warppointsFormat settings, Matrix : CustomCodec ID : DX50Codec ID/Hint : DivX 5Duration : 1h 15mnBit rate : 2 363 KbpsWidth : 704 pixelsHeight : 384 pixelsDisplay aspect ratio : 1.85:1Frame rate : 23.976 fpsColor space : YUVChroma subsampling : 4:2:0Bit depth : 8 bitsScan type : ProgressiveCompression mode : LossyBits/(Pixel*Frame) : 0.365Stream size : 1.25 GiB (92%)Writing library : XviD 65
AudioID : 1Format : AC-3Format/Info : Audio Coding 3Mode extension : CM (complete main)Format settings, Endianness : BigCodec ID : 2000Duration : 1h 15mnBit rate mode : ConstantBit rate : 192 KbpsChannel(s) : 2 channelsChannel positions : Front: L RSampling rate : 48.0 KHzCompression mode : LossyStream size : 104 MiB (7%)Alignment : Split accross interleavesInterleave, duration : 42 ms (1.00 video frame)Interleave, preload duratio : 500 ms

Скриншоты

Показать сообщения:    

Текущее время: 24-Сен 12:56

Часовой пояс: UTC - 1


Вы не можете начинать темы
Вы не можете отвечать на сообщения
Вы не можете редактировать свои сообщения
Вы не можете удалять свои сообщения
Вы не можете голосовать в опросах
Вы не можете прикреплять файлы к сообщениям
Вы не можете скачивать файлы

!ВНИМАНИЕ!
Сайт не предоставляет электронные версии произведений, а занимается лишь коллекционированием и каталогизацией ссылок, присылаемых и публикуемых на форуме нашими читателями. Если вы являетесь правообладателем какого-либо представленного материала и не желаете, чтобы ссылка на него находилась в нашем каталоге, свяжитесь с нами, и мы незамедлительно удалим ее. Файлы для обмена на трекере предоставлены пользователями сайта, и администрация не несет ответственности за их содержание. Просьба не заливать файлы, защищенные авторскими правами, а также файлы нелегального содержания!