Важное объявление!
У Нас Все раздачи мультитрекерные, при нуле пиров в релизах, можете смело вставать на закачку!
 
Автор Сообщение

HUNTER

Стаж:
4 года 7 месяцев
Сообщений:
61521

Репутация: 101

[+] [-]
Вне форума [Профиль] [ЛС]


Долго и счастливо: все о мужчине, женщине и семье-Год выпуска: 2009
Страна: Россия
Сайт производителя: отсутствуeт
Тематика: психология
Тип материала: Обучающее видео
Продолжительность: 11 х ~ 01:15:00
Автор: Александр Гордон, Ольга Троицкая
Язык: Русский
Субтитры: отсутствуют-Описание: Фильмы цикла "Долго и счастливо" представляют собой диалоги признанного мастера телевизионной беседы Александра Гордона и семейного психолога Ольги Троицкой, в ходе которой телеведущий задает своей собеседнице вопросы, которые волнуют и интересуют каждого. Они рассчитаны на самую широкую аудиторию, особенно на тех, кто интересуется проблемами взаимоотношений в семье между мужем и женой, родителями и детьми, а также вопросами воспитания детей.-Качество: DVDRip
Формат: AVI
Видео кодек: XviD
Аудио кодек: MP3-

Часть 01.Как делают мальчиков

Видео: 560x416 (1.35:1), 25 fps, XviD build 50 ~552 kbps avg, 0.10 bit/pixel
Аудио: 48 kHz, MPEG Layer 3, 2 ch, ~100.54 kbps avg

Часть 02. Муж и женщина

Видео: 512x384 (1.33:1), 25 fps, XviD build 50 ~422 kbps avg, 0.09 bit/pixel
Аудио: 48 kHz, MPEG Layer 3, 2 ch, ~102.75 kbps avg

Часть 03. Делай как мы (Родительские послания)

Видео: 560x416 (1.35:1), 25 fps, XviD build 50 ~552 kbps avg, 0.10 bit/pixel
Аудио: 48 kHz, MPEG Layer 3, 2 ch, ~100.54 kbps avg

Часть 04. Родословное древо - яблочко от яблони

Видео: 528x400 (1.32:1), 25 fps, XviD build 50 ~476 kbps avg, 0.09 bit/pixel
Аудио: 48 kHz, MPEG Layer 3, 2 ch, ~104.27 kbps avg

Часть 05. С больной головы на здоровую (Родителям о детях)

Видео: 640x480 (1.33:1), 25 fps, XviD build 50 ~636 kbps avg, 0.08 bit/pixel
Аудио: 48 kHz, MPEG Layer 3, 2 ch, ~100.42 kbps avg

Часть 06. Чужой среди своих - подросток в семье

Видео: 640x480 (1.33:1), 25 fps, XviD build 50 ~636 kbps avg, 0.08 bit/pixel
Аудио: 48 kHz, MPEG Layer 3, 2 ch, ~100.42 kbps avg

Часть 07. Не в деньгах несчастье (Стать богатым, но счастливым)

Видео: 720x544 (1.32:1), 25 fps, XviD build 50 ~697 kbps avg, 0.07 bit/pixel
Аудио: 48 kHz, MPEG Layer 3, 2 ch, ~103.51 kbps avg

Часть 08. Роли, в которых играют люди

Видео: 640x480 (1.33:1), 25 fps, XviD build 50 ~623 kbps avg, 0.08 bit/pixel
Аудио: 48 kHz, MPEG Layer 3, 2 ch, ~102.66 kbps avg

Часть 09. От семьи не уйдешь

Видео: 560x416 (1.35:1), 25 fps, XviD build 50 ~426 kbps avg, 0.07 bit/pixel
Аудио: 48 kHz, MPEG Layer 3, 2 ch, ~102.23 kbps avg

Часть 10. Голова против тела

Видео: 640x480 (1.33:1), 25 fps, XviD build 50 ~608 kbps avg, 0.08 bit/pixel
Аудио: 48 kHz, MPEG Layer 3, 2 ch, ~103.46 kbps avg

Часть 11. Гимнастика мозга

Видео: 576x432 (1.33:1), 25 fps, XviD build 50 ~558 kbps avg, 0.09 bit/pixel
Аудио: 48 kHz, MPEG Layer 3, 2 ch, ~102.96 kbps avg

MediaInfo

Код: copyText_writeLink('this.parentNode.parentNode.nextSibling.nextSibling'); Общее
Полное имя : C:\Users\Администратор\Downloads\Dolgo-Schastlivo\Part_1.avi
Формат : AVI
Формат/Информация : Audio Video Interleave
Размер файла : 350 Мбайт
Продолжительность : 1 ч. 13 м.
Режим общего битрейта : Переменный
Общий поток : 667 Кбит/сек
Программа кодирования : VirtualDubMod 1.5.4.1 (build 2178/release)
Библиотека кодирования : VirtualDubMod build 2178/release
Видео
Идентификатор : 0
Формат : MPEG-4 Visual
Профиль формата : Advanced Simple@L5
Параметр BVOP формата : 1
Параметр QPel формата : Нет
Параметр GMC формата : Без точки перехода
Параметр матрицы формата : Выборочная
Идентификатор кодека : XVID
Идентификатор кодека/Подсказка : XviD
Продолжительность : 1 ч. 13 м.
Битрейт : 553 Кбит/сек
Ширина : 560 пикселей
Высота : 416 пикселей
Соотношение сторон : 4:3
Частота кадров : 25,000 кадров/сек
Цветовое пространство : YUV
Субдискретизация насыщенности : 4:2:0
Битовая глубина : 8 бит
Тип развёртки : Прогрессивная
Метод сжатия : С потерями
Бит/(Пиксели*Кадры) : 0.095
Размер потока : 291 Мбайт (83%)
Библиотека кодирования : XviD 1.2.1 (UTC 2008-12-04)
Аудио
Идентификатор : 1
Формат : MPEG Audio
Версия формата : Version 1
Профиль формата : Layer 3
Режим : Joint stereo
Расширение режима : MS Stereo
Идентификатор кодека : 55
Идентификатор кодека/Подсказка : MP3
Продолжительность : 1 ч. 13 м.
Вид битрейта : Переменный
Битрейт : 101 Кбит/сек
Номинальный битрейт : 128 Кбит/сек
Каналы : 2 канала
Частота : 48,0 КГц
Метод сжатия : С потерями
Размер потока : 52,8 Мбайт (15%)
Выравнивание : Соединение по промежуткам
Продолжительность промежутка : 24 мс. (0,60 видеокадр)
Время предзагрузки промежутка : 559 мс.
Библиотека кодирования : LAME3.98r
Настройки программы : -m j -V 4 -q 2 -lowpass 17 --abr 128
Язык : Russian
-

_________________
Показать сообщения:    

Текущее время: Сегодня 22:13

Часовой пояс: GMT



Вы не можете начинать темы
Вы не можете отвечать на сообщения
Вы не можете редактировать свои сообщения
Вы не можете удалять свои сообщения
Вы не можете голосовать в опросах
Вы не можете прикреплять файлы к сообщениям
Вы не можете скачивать файлы
Наши партнеры: интернет магазин Ивановского трикотажа textilla.ru