Ивановский Торрент трекер
Яндекс.Погода
 

[Цитировать]
HUNTER

Долгий путь на Марс
Дата/Год выпуска: 1989
Страна: СССР
Жанр: документальный
Продолжительность: 00:19:47
Перевод: Не требуется
Режиссер: Н. Макаров
Описание: Быть или не быть полету на Марс? Будем честными: аргументы "против" звучат более убедительно, чем аргументы "за". И все же...
Доп. информация:
Производство - Центрнаучфильм
Автор сценария - А. Бородин
Консультант - академик Б.В. Раушенбах
За раздачу http://rutracker.org/forum/viewtopic.php?t=4818725 особая благодарность Gahan Dave
качество: DVDRip
формат: AVI
Видео: DivX, 1700 Кбит/сек, 704 x 528 (1.333), 25.000 fps
Аудио: MP3, 128 Кбит/сек, 2 канала, 48,0 КГц

MediaInfo

ОбщееПолное имя : T:\Мои раздачи\Долгий путь на Марс (1989)\Долгий путь на Марс (1989).aviФормат : AVIФормат/Информация : Audio Video InterleaveРазмер файла : 260 МбайтПродолжительность : 19 м.Общий поток : 1838 Кбит/секПрограмма кодирования : VirtualDubMod 1.5.10.2 (build 2540/release)Библиотека кодирования : VirtualDubMod build 2540/release
ВидеоИдентификатор : 0Формат : MPEG-4 VisualПрофиль формата : Advanced Simple@L5Параметр BVOP формата : 3Параметр QPel формата : НетПараметр GMC формата : Без точки переходаПараметр матрицы формата : Default (H.263)Идентификатор кодека : XVIDИдентификатор кодека/Подсказка : XviDПродолжительность : 19 м.Битрейт : 1700 Кбит/секШирина : 704 пикселяВысота : 528 пикселейСоотношение сторон : 4:3Частота кадров : 25,000 кадров/секЦветовое пространство : YUVСубдискретизация насыщенности : 4:2:0Битовая глубина : 8 битТип развёртки : ПрогрессивнаяМетод сжатия : С потерямиБит/(Пиксели*Кадры) : 0.183Размер потока : 240 Мбайт (93%)Библиотека кодирования : XviD 1.2.1 (UTC 2008-12-04)
АудиоИдентификатор : 1Формат : MPEG AudioВерсия формата : Version 1Профиль формата : Layer 3Идентификатор кодека : 55Идентификатор кодека/Подсказка : MP3Продолжительность : 19 м.Вид битрейта : ПостоянныйБитрейт : 128 Кбит/секКаналы : 2 каналаЧастота : 48,0 КГцМетод сжатия : С потерямиРазмер потока : 18,1 Мбайт (7%)Выравнивание : Соединение по промежуткамПродолжительность промежутка : 40 мс. (1,00 видеокадр)Время предзагрузки промежутка : 504 мс.Библиотека кодирования : LAME3.98rНастройки программы : -m s -V 4 -q 2 -lowpass 17 -b 128

Скриншоты

Показать сообщения:    

Текущее время: 22-Окт 18:04

Часовой пояс: UTC - 1


Вы не можете начинать темы
Вы не можете отвечать на сообщения
Вы не можете редактировать свои сообщения
Вы не можете удалять свои сообщения
Вы не можете голосовать в опросах
Вы не можете прикреплять файлы к сообщениям
Вы не можете скачивать файлы

!ВНИМАНИЕ!
Сайт не предоставляет электронные версии произведений, а занимается лишь коллекционированием и каталогизацией ссылок, присылаемых и публикуемых на форуме нашими читателями. Если вы являетесь правообладателем какого-либо представленного материала и не желаете, чтобы ссылка на него находилась в нашем каталоге, свяжитесь с нами, и мы незамедлительно удалим ее. Файлы для обмена на трекере предоставлены пользователями сайта, и администрация не несет ответственности за их содержание. Просьба не заливать файлы, защищенные авторскими правами, а также файлы нелегального содержания!